Tarqatmalar statistikasi
Yoʻq
 
     
 
 

Frozen ®

Jins:
Yigit
Staj:
1 yil 1 oy
Xabarlar:
58

Qayerdan: Toshkent, Navoi

Taqiq:

--1+1 / Неприкасаемые / Intouchables --
Davlat: Fransiya
Janr: Drama, Komediya
Chiqqan yili: 2011
Davomiyligi: 1:52:02--Tarjima: Professional [Cinema TV]
Tarjima 2: Professional
Subtitr: Ingliz tili
Orginal ovozi: Fransuz tilida--Rejissior: Olivier Nakache, Eric Toledano--Rollarda: François Cluzet (Philippe), Omar Sy (Driss), Anne Le Ny / Anne Le Ny (Yvonne), Audrey Fleurot (Magalie), Clotilde Mollet (Marcelle), Alba Gaia Kraggede Belluja / Alba Gaïa Kraghede Bellugi (Elisa), Cyril Mendy (Adama), Christian Ameri (Albert), Grégoire Oestermann (Antoine), Josefine de Moeux (La DRH société de courses ), Dominique Daguier (Amie de Philippe), François Caron (Ami de Philippe)--Malumot: Badavlat Aristokrat Filipp nogironligi sababli o`ziga enaga qilib endigina qamoqdan ozod qilingan Drissni yollaydi. Filippni nogironlar aravachasiga bog'langaniga qaramasdan, Drissa sarguzasht ruhini aristokratning hayotiga olib keladi.--Video sifati: BDRip
video formati: MKV--Video: MPEG-4 AVC / High Profile 4.1 / 1280x696 (1,85:1) / 24,000 fps / 4586 kbps
Audio: O`zbek tilida / MP3 4ch / 44 KHz / 448 kbps |Cinema.uz|
Audio 2: Russ tilida / AC3 6ch / 48 KHz / 448 kbps |Dublyaj|
Audio 3: Fransuz tilida / AC3 6ch / 48 KHz / 448 kbps |Original|
Subtitr formati: softsub (SRT)

MediaInfo

General
Unique ID : 187054251182757165685600591563768392617 (0x8CB9569E9D90F948B406698A8636EBA9)
Complete name : E:\kino\1+1.Неприкасаемые.2011.BDRip.TOP - №5 Кинопоиск [_-KIRA-_].mkv
Format : Matroska
Format version : Version 4 / Version 2
File size : 4.53 GiB
Duration : 1h 52mn
Overall bit rate : 5 785 Kbps
Movie name : Intouchables.2011.BDRip.720p.Rip.by.Yusuf
Encoded date : UTC 2015-01-03 14:12:36
Writing application : mkvmerge v6.2.0 ('Promised Land') built on Apr 28 2013 12:22:01
Writing library : libebml v1.3.0 + libmatroska v1.4.0
Video #1
ID : 1
Format : AVC
Format/Info : Advanced Video Codec
Format profile : High@L4.1
Format settings, CABAC : Yes
Format settings, ReFrames : 5 frames
Codec ID : V_MPEG4/ISO/AVC
Duration : 1h 52mn
Bit rate : 4 582 Kbps
Width : 1 280 pixels
Height : 696 pixels
Display aspect ratio : 1.85:1
Frame rate mode : Constant
Frame rate : 24.000 fps
Color space : YUV
Chroma subsampling : 4:2:0
Bit depth : 8 bits
Scan type : Progressive
Bits/(Pixel*Frame) : 0.214
Stream size : 3.59 GiB (79%)
Title : Intouchables.2011.BDRip.720p.Yusuf.mkv
Writing library : x264 core 138 r2358 9e941d1
Encoding settings : cabac=1 / ref=5 / deblock=1:-3:-3 / analyse=0x3:0x113 / me=hex / subme=9 / psy=1 / psy_rd=1.00:0.00 / mixed_ref=1 / me_range=16 / chroma_me=1 / trellis=2 / 8x8dct=1 / cqm=0 / deadzone=21,11 / fast_pskip=1 / chroma_qp_offset=-2 / threads=6 / lookahead_threads=1 / sliced_threads=0 / nr=0 / decimate=1 / interlaced=0 / bluray_compat=0 / constrained_intra=0 / bframes=5 / b_pyramid=2 / b_adapt=1 / b_bias=0 / direct=1 / weightb=1 / open_gop=0 / weightp=2 / keyint=240 / keyint_min=24 / scenecut=40 / intra_refresh=0 / rc_lookahead=40 / rc=crf / mbtree=1 / crf=19.0 / qcomp=0.60 / qpmin=0 / qpmax=69 / qpstep=4 / vbv_maxrate=50000 / vbv_bufsize=50000 / crf_max=0.0 / nal_hrd=none / ip_ratio=1.40 / aq=1:1.00
Language : English
Default : Yes
Forced : No
Audio #2
ID : 2
Format : AC-3
Format/Info : Audio Coding 3
Mode extension : CM (complete main)
Format settings, Endianness : Big
Codec ID : A_AC3
Duration : 1h 52mn
Bit rate mode : Constant
Bit rate : 448 Kbps
Channel(s) : 6 channels
Channel positions : Front: L C R, Side: L R, LFE
Sampling rate : 48.0 KHz
Bit depth : 16 bits
Compression mode : Lossy
Stream size : 359 MiB (8%)
Title : Rus tilida, Dublyaj R5
Language : Russian
Default : Yes
Forced : Yes
Audio #3
ID : 3
Format : MPEG Audio
Format version : Version 1
Format profile : Layer 3
Mode : Joint stereo
Codec ID : A_MPEG/L3
Codec ID/Hint : MP3
Duration : 1h 52mn
Bit rate mode : Constant
Bit rate : 192 Kbps
Channel(s) : 2 channels
Sampling rate : 44.1 KHz
Compression mode : Lossy
Stream size : 154 MiB (3%)
Title : O`zbek tilida, Cinema.uz [_-KIRA-_]
Writing library : LAME3.99.5
Language : Uzbek
Default : No
Forced : No
Audio #4
ID : 4
Format : AC-3
Format/Info : Audio Coding 3
Mode extension : CM (complete main)
Format settings, Endianness : Big
Codec ID : A_AC3
Duration : 1h 52mn
Bit rate mode : Constant
Bit rate : 448 Kbps
Channel(s) : 6 channels
Channel positions : Front: L C R, Side: L R, LFE
Sampling rate : 48.0 KHz
Bit depth : 16 bits
Compression mode : Lossy
Stream size : 359 MiB (8%)
Title : Fransuz tilida, Orginal
Language : French
Default : No
Forced : No
Text #5
ID : 5
Format : UTF-8
Codec ID : S_TEXT/UTF8
Codec ID/Info : UTF-8 Plain Text
Title : FALIMONOVA
Language : Russian
Default : No
Forced : No
Text #6
ID : 6
Format : UTF-8
Codec ID : S_TEXT/UTF8
Codec ID/Info : UTF-8 Plain Text
Title : El.Brujo
Language : Russian
Default : No
Forced : No
Text #7
ID : 7
Format : UTF-8
Codec ID : S_TEXT/UTF8
Codec ID/Info : UTF-8 Plain Text
Language : French
Default : No
Forced : No
Text #8
ID : 8
Format : UTF-8
Codec ID : S_TEXT/UTF8
Codec ID/Info : UTF-8 Plain Text
Language : English
Default : No
Forced : No
Menu
00:00:00.000 : en:00:00:00.000
00:07:26.000 : en:00:07:26.000
00:12:54.375 : en:00:12:54.375
00:18:56.667 : en:00:18:56.667
00:26:51.958 : en:00:26:51.958
00:30:50.708 : en:00:30:50.708
00:37:26.208 : en:00:37:26.208
00:42:05.667 : en:00:42:05.667
00:48:45.333 : en:00:48:45.333
00:54:26.250 : en:00:54:26.250
00:58:02.708 : en:00:58:02.708
01:04:06.833 : en:01:04:06.833
01:14:27.042 : en:01:14:27.042
01:21:39.833 : en:01:21:39.833
01:29:26.125 : en:01:29:26.125
01:35:56.875 : en:01:35:56.875
01:40:22.042 : en:01:40:22.042
01:45:12.542 : en:01:45:12.542

Skrinshot

Profil ShX
Xabarlarni ko‘rsatish:    

Hozirgi vaqt: 23-Sen 11:44

Vaqtlar farqi: UTC + 5



Siz mavzu yaratishingiz mumkin emas
Siz xabarlarga javob qaytarishingiz mumkin emas
Siz o‘z xabarlaringizni tahrirlashingiz mumkin emas
Siz o‘z xabarlaringizni o‘chirishingiz mumkin emas
Siz so‘rovlarda ovoz berishingiz mumkin emas
Siz xabalarga fayllarni biriktirishingiz mumkin emas
Siz fayllarni ko‘chirishingiz mumkin emas