˂
˃
Tarqatmalar statistikasi
Yoʻq
 
     
 
 

Frozen ®

Jins:
Yigit
Staj:
1 yil 3 oy
Xabarlar:
58

Qayerdan: Toshkent, Navoi

Taqiq:

- 127 soat / 127 часов / 127 Hours - Davlat: AQSH, Buyuk Britaniya
Janr: triller, biografiya, dramma, sarguzasht
Chiqqan yili: 2010
Davomiyligi: 01:33:41-Tarjima: Professional (Dublirovaniy)
Tarjima 2: Professional (Kop ovozli kadr orti)
Orginal ovozi: Ingliz tilida
Rejissiyor: Danny Boyle
Rollarda: James Franco, Keith Mara, Amber Tamblyn, Clemence Poesy, Lizzie Kaplan, Trit Williams, Keith Burton, Sean Bott, John Lawrence, Coleman Stinger, Bailey Michelle Johnson, Parker Hadley
-
Tarif: Sayohat va maishatni sevuvchi filmning bosh qahramoni kongilsiz bir xolatga uchraydiyu va shu bilan butun hayoti koz oldidan kechadi. Bu kino og'ir damda hattoki hech qanday umid qolmaganda ham yashashdan umidni uzmaslik va oldinga harakatlanishda davom etish haqida.
Video Sifati: BDRip-AVC
Video Formati: MKV
-
Video: 2712 Кбит/сек, 960*520 (16:9), в 23,976 кадр/сек, AVC
Audio: Russian, 448 kbit/sek, 48,0 КГц, 16 бит, 6 kanalda, AC-3
Audio 2: Uzbek, 448 kbit/sek, 48,0 КГц, 16 бит, 6 kanalda, AC-3
-
-

MediaInfo

E:\kino\127 часов.2010.BDRip [_-KIRA-_].mkv
General
Unique ID : 187598641256368842312896930434454941141 (0x8D222F1F5B0EDE46A01D25524A0C6DD5)
Complete name : E:\kino\127 часов.2010.BDRip [_-KIRA-_].mkv
Format : Matroska
Format version : Version 4 / Version 2
File size : 2.26 GiB
Duration : 1h 33mn
Overall bit rate : 3 458 Kbps
Encoded date : UTC 2014-05-04 19:16:57
Writing application : mkvmerge v6.2.0 ('Promised Land') built on Apr 28 2013 12:22:01
Writing library : libebml v1.3.0 + libmatroska v1.4.0
Video #1
ID : 1
Format : AVC
Format/Info : Advanced Video Codec
Format profile : Baseline@L3.1
Format settings, CABAC : No
Format settings, ReFrames : 1 frame
Format settings, GOP : M=1, N=12
Codec ID : V_MPEG4/ISO/AVC
Duration : 1h 33mn
Bit rate : 2 877 Kbps
Width : 1 024 pixels
Height : 552 pixels
Display aspect ratio : 1.85:1
Frame rate mode : Constant
Frame rate : 23.976 fps
Color space : YUV
Chroma subsampling : 4:2:0
Bit depth : 8 bits
Scan type : Progressive
Bits/(Pixel*Frame) : 0.212
Stream size : 1.88 GiB (83%)
Default : Yes
Forced : No
Color range : Full
Audio #2
ID : 2
Format : MPEG Audio
Format version : Version 1
Format profile : Layer 3
Mode : Joint stereo
Mode extension : MS Stereo
Codec ID : A_MPEG/L3
Codec ID/Hint : MP3
Duration : 1h 33mn
Bit rate mode : Constant
Bit rate : 192 Kbps
Channel(s) : 2 channels
Sampling rate : 44.1 KHz
Compression mode : Lossy
Stream size : 129 MiB (6%)
Title : Rus tilida, dublyaj
Writing library : LAME3.97
Language : Russian
Default : Yes
Forced : No
Audio #3
ID : 3
Format : MPEG Audio
Format version : Version 1
Format profile : Layer 3
Codec ID : A_MPEG/L3
Codec ID/Hint : MP3
Duration : 1h 33mn
Bit rate mode : Constant
Bit rate : 320 Kbps
Channel(s) : 2 channels
Sampling rate : 44.1 KHz
Compression mode : Lossy
Stream size : 214 MiB (9%)
Title : O`zbek tilida, Litsenziya _-KIRA-_
Writing library : LAME3.82
Language : Uzbek
Default : No
Forced : No
Text #4
ID : 4
Format : SSA
Codec ID : S_TEXT/SSA
Codec ID/Info : Sub Station Alpha
Compression mode : Lossless
Title : _-KIRA-_
Language : Uzbek
Default : Yes
Forced : No
Profil ShX

MRLG

Jins:
Yigit
Staj:
1 yil 3 oy
Xabarlar:
526
Taqiq:

Ajoyib film, bir necha marotaba korganman rus tilida.

Mavzu yaratish 19-Avg-2017 09:00 (7 soat o‘tgach)

Iqitibos

Profil ShX

admin

Jins:
Yigit
Staj:
8 oy 5 kun
Xabarlar:
5

Qayerdan: Tashkent, Navai

Taqiq:

Ha o'zbek tilidagi ovozi yaxshi tarjima qilingan, ozbekchasiniyam korishni tavsiya qilaman

Mavzu yaratish 19-Avg-2017 11:21 (2 soat 20 daqiqa o‘tgach)

Iqitibos

Profil ShX
Xabarlarni ko‘rsatish:    

Hozirgi vaqt: 11-Dek 21:52

Vaqtlar farqi: UTC + 5



Siz mavzu yaratishingiz mumkin emas
Siz xabarlarga javob qaytarishingiz mumkin emas
Siz o‘z xabarlaringizni tahrirlashingiz mumkin emas
Siz o‘z xabarlaringizni o‘chirishingiz mumkin emas
Siz so‘rovlarda ovoz berishingiz mumkin emas
Siz xabalarga fayllarni biriktirishingiz mumkin emas
Siz fayllarni ko‘chirishingiz mumkin emas