Tarqatmalar statistikasi
Yoʻq
 
     
 
 

Gr@nd ®

Jins:
Yigit
Staj:
11 oy 25 kun
Xabarlar:
150

Qayerdan: Jizzax Forish

Taqiq:

6 Fut chuqurlikda | На глубине 6 футов -Davlat: AQSh
Janr: Trillеr, drama, sarguzasht, biografiya
Chiqqan yili: 2017
Davomiyligi: 01:37:44-Tarjima: Professional (dublyaj qilingan)O'zbek tilida-Rejissiyor: Scott Waugh-Rollarda: Djosh Xartnеtt (Eric LeMarque), Mira Sorvino (Susan Lemarqe), Sara Dyumon (Sarah), Kеyl Kalli (Young Eric LeMarque), Djеyson Kottl (David LeMarque), Ostin R. Grant (Corey), Neytan Stivеns (Seth), Marti MakSorеli (Boston Bruins Coach), Shon Pilts (Jake), Vashi Nеdomanski (Spivack), Djoi Miyasima (Guard), Devid Stivеns (Wade)-Описание: После окончания блестящей спортивной карьеры Эрик Лемарк, олимпийский чемпион мира по хоккею, уже не может жить без адреналина. Теперь драйв он находит в наркотиках и сноуборде. Когда лыжный патруль в горах Маммос (Калифорния) закрывает все трассы из-за надвигающейся бури, Лемарк решает сделать последний спуск и оказывается в смертельной снежной западне...-Videoning sifati: WEB-DLRip
Формат видео: MKV-Video: Xvid 720x256 23.976fps 1 569 Kbps
Audio: Dolby AC3 48000Hz 6ch Rus
Audio: MP3 48000Hz 2ch 128kbps Uzb-

MediaInfo

General
Unique ID : 197278505335722927934853921481092041292 (0x946A7544CBED07B499E9ED2DD8C90A4C)
Format : Matroska
Format version : Version 4 / Version 2
File size : 1.45 GiB
Duration : 1h 37mn
Overall bit rate : 2 123 Kbps
Movie name : Xusan_Gr@nd
Encoded date : UTC 2017-11-03 17:18:13
Writing application : mkvmerge v6.8.0 ('Theme for Great Cities') 64bit built on Mar 2 2014 21:34:26
Writing library : libebml v1.3.0 + libmatroska v1.4.1
Video
ID : 1
Format : MPEG-4 Visual
Format profile : Advanced Simple@L5
Format settings, BVOP : Yes
Format settings, QPel : No
Format settings, GMC : No warppoints
Format settings, Matrix : Default (MPEG)
Codec ID : XVID
Codec ID/Hint : XviD
Duration : 1h 37mn
Bit rate : 1 569 Kbps
Width : 720 pixels
Height : 256 pixels
Display aspect ratio : 2.813
Frame rate : 23.976 fps
Color space : YUV
Chroma subsampling : 4:2:0
Bit depth : 8 bits
Scan type : Progressive
Compression mode : Lossy
Bits/(Pixel*Frame) : 0.355
Stream size : 1.07 GiB (74%)
Writing library : XviD 1.2.1 (UTC 2008-12-04)
Default : Yes
Forced : No
Audio #1
ID : 2
Format : AC-3
Format/Info : Audio Coding 3
Mode extension : CM (complete main)
Format settings, Endianness : Big
Codec ID : A_AC3
Duration : 1h 37mn
Bit rate mode : Constant
Bit rate : 384 Kbps
Channel(s) : 6 channels
Channel positions : Front: L C R, Side: L R, LFE
Sampling rate : 48.0 KHz
Bit depth : 16 bits
Compression mode : Lossy
Stream size : 268 MiB (18%)
Default : Yes
Forced : No
Audio #2
ID : 3
Format : MPEG Audio
Format version : Version 1
Format profile : Layer 3
Mode : Joint stereo
Mode extension : MS Stereo
Codec ID : A_MPEG/L3
Codec ID/Hint : MP3
Duration : 1h 37mn
Bit rate mode : Constant
Bit rate : 128 Kbps
Channel(s) : 2 channels
Sampling rate : 44.1 KHz
Compression mode : Lossy
Stream size : 89.5 MiB (6%)
Title : Xusan_Gr@nd
Language : Uzbek
Default : No
Forced : No
Profil ShX

Striker

Jins:
Yigit
Staj:
1 yil 1 oy
Xabarlar:
36
Taqiq:

10.3.229.16 ni qushvorilar iltimos

Mavzu yaratish 04-Noy-2017 21:28 (1 soat 12 daqiqa o‘tgach)

Iqitibos

Profil ShX

Striker

Jins:
Yigit
Staj:
1 yil 1 oy
Xabarlar:
36
Taqiq:

Gr@nd, 10.3.229.16 ni qushvoring

Mavzu yaratish 04-Noy-2017 21:28 (37 soniya o‘tgach)

Iqitibos

Profil ShX

ilyosxon2017

Jins:
Yigit
Staj:
10 oy
Xabarlar:
1

Qayerdan: o'zbekiston

Taqiq:

salom yuklab bo'lmayapti

Mavzu yaratish 21-Noy-2017 08:53 (16 kun o‘tgach)

Iqitibos

Profil ShX
Xabarlarni ko‘rsatish:    

Hozirgi vaqt: 21-Sen 11:25

Vaqtlar farqi: UTC + 5



Siz mavzu yaratishingiz mumkin emas
Siz xabarlarga javob qaytarishingiz mumkin emas
Siz o‘z xabarlaringizni tahrirlashingiz mumkin emas
Siz o‘z xabarlaringizni o‘chirishingiz mumkin emas
Siz so‘rovlarda ovoz berishingiz mumkin emas
Siz xabalarga fayllarni biriktirishingiz mumkin emas
Siz fayllarni ko‘chirishingiz mumkin emas