Tarqatmalar statistikasi
Yoʻq
 
     
 
 

MRLG ®

Jins:
Yigit
Staj:
1 yil 1 oy
Xabarlar:
465
Taqiq:

-7-Qavat- FILM HAQIDA MA'LUMOT
Chiqqan yili: 2017
Davlat: O'zbekiston
Janri: Komediya, Oilaviy
Davomiyligi: 01:26:26
Tarjima: Original (Tarjima talab qilinmaydi)-Rejissiyor: Ruslan Ibragimov
Rollarda
Doniyor Xafizov, Nigina Anarbaeva, Bahodir Axmedov, Anjelika Esembetova, Gayrat Boymirzaev, Shirina Ismoilova, Musulmon Yunusov, Dilnavoz Ismatullaeva-Tavsif
O`z singlisini tug`ilgan kuniga kech qolayotgan yigit liftda bir begona qiz bilan qamalib qoladi. Yangi o`zbekcha kino-komediya.-Qo'shimcha ma'lumotlar-Sifat: HDRip
Format: AVI
Video: | Xvid | 640x264 | 25fps | 424kbps |
Audio: MP3 / 44100Hz / 2ch / 128kbps /-

MI

General
Complete name                  : D:\Кино\UZBEK KINO\7-Qavat.2017.O.XviD.HDRip.avi
Format                         : AVI
Format/Info                    : Audio Video Interleave
File size                      : 348 MiB
Duration                       : 1 h 26 min
Overall bit rate               : 563 kb/s
Writing application            : VirtualDubMod 1.5.10.3 | www.virtualdub-fr.org || (build 2550/release)
Writing library                : VirtualDubMod build 2550/release
Video
ID                             : 0
Format                         : MPEG-4 Visual
Format profile                 : Advanced Simple@L5
Format settings, BVOP          : 2
Format settings, QPel          : No
Format settings, GMC           : No warppoints
Format settings, Matrix        : Custom
Codec ID                       : XVID
Codec ID/Hint                  : XviD
Duration                       : 1 h 26 min
Bit rate                       : 425 kb/s
Width                          : 640 pixels
Height                         : 264 pixels
Display aspect ratio           : 2.40:1
Frame rate                     : 25.000 FPS
Color space                    : YUV
Chroma subsampling             : 4:2:0
Bit depth                      : 8 bits
Scan type                      : Progressive
Compression mode               : Lossy
Bits/(Pixel*Frame)             : 0.101
Stream size                    : 263 MiB (76%)
Writing library                : XviD 1.2.1 (UTC 2008-12-04)
Audio
ID                             : 1
Format                         : MPEG Audio
Format version                 : Version 1
Format profile                 : Layer 3
Codec ID                       : 55
Codec ID/Hint                  : MP3
Duration                       : 1 h 26 min
Bit rate mode                  : Constant
Bit rate                       : 128 kb/s
Channel(s)                     : 2 channels
Sampling rate                  : 44.1 kHz
Compression mode               : Lossy
Stream size                    : 79.1 MiB (23%)
Alignment                      : Split accross interleaves
Interleave, duration           : 40  ms (1.00 video frame)
Interleave, preload duration   : 500  ms
Writing library                : LAME3.99r
Encoding settings              : -m s -V 4 -q 0 -lowpass 17 -b 128

Miniatyura

FILM LAVHALARI
Profil ShX

UZTEXNO

Jins:
Yigit
Staj:
1 yil
Xabarlar:
25
Taqiq:

MRLG, Kinoni korishga maslahat berasizmi ? Yoki ...

Mavzu yaratish 08-Okt-2017 12:29 (1 daqiqa o‘tgach)

Iqitibos

Profil ShX

MRLG ®

Jins:
Yigit
Staj:
1 yil 1 oy
Xabarlar:
465
Taqiq:

SanJaR_Uz, O`zim hali ko`rganim yuq.

Mavzu yaratish 08-Okt-2017 12:31 (1 daqiqa o‘tgach)

Iqitibos

Profil ShX

vuelta

Jins:
Yigit
Staj:
1 yil 1 oy
Xabarlar:
294
Taqiq:

Kuramiz

Mavzu yaratish 08-Okt-2017 12:37 (6 daqiqa o‘tgach)

Iqitibos

Profil ShX
Xabarlarni ko‘rsatish:    

Hozirgi vaqt: 21-Sen 05:56

Vaqtlar farqi: UTC + 5



Siz mavzu yaratishingiz mumkin emas
Siz xabarlarga javob qaytarishingiz mumkin emas
Siz o‘z xabarlaringizni tahrirlashingiz mumkin emas
Siz o‘z xabarlaringizni o‘chirishingiz mumkin emas
Siz so‘rovlarda ovoz berishingiz mumkin emas
Siz xabalarga fayllarni biriktirishingiz mumkin emas
Siz fayllarni ko‘chirishingiz mumkin emas