˂
˃
Tarqatmalar statistikasi
Ko‘chirmoqdaman: [ 13 ]
Ko‘chirib bo‘ldim: [ 50 ]
 
     
 
 

N.U.R.I.K.B.E.K ®

Jins:
Yigit
Staj:
1 yil 1 oy
Xabarlar:
344

Qayerdan: Jizzax. Paxtakor

Taqiq:

--Adolat Tarafdori 2 | Великий уравнитель 2 | The Equalizer 2--Chiqqan yili: 2018
Davlat: AQSH
Janr: Jangari, Triller, Jinoyat.
Davomiyligi: 02:01:12
Tarjima: Professional (dublyaj qilingan)
Tarjima #1: Professional Kinoteatr O'zbek Tilida
Tarjima #2: Professional Rus Tilida--Rejissyor: Antuan Fukua.--Rollarda: Denzel Vashington, Pedro Paskal, Bill Pulman, Melisa Leo, Jonatan Skarf, Sakina Jefri, Kerolayn Dey, Orson Bin, Xaydi Garrou, Eshton Sanders.--Tavsif: Robert Makkol tarixining davom etishi, Ichki ishlar sobiq agenti, odil sudlovni mustaqil boshqarmoqchi--Videoning sifati: WEB-DL 1080p
Video format: MKV--Video: MPEG4 Video (H264) 1920x796 23.976fps 1 884 Kbps
Audio: MP3 48000Hz stereo 128kbps O'zbek Til
Audio 2: Dolby AC3 48000Hz 6ch 384kbps Rus Til--

Media Info

General
Format : Matroska
Format version : Version 4 / Version 2
File size : 2.07 GiB
Duration : 2h 1mn
Overall bit rate : 2 445 Kbps
Video
ID : 1
Format : AVC
Format/Info : Advanced Video Codec
Format profile : High@L4
Format settings, CABAC : Yes
Format settings, ReFrames : 1 frame
Format settings, GOP : M=1, N=25
Codec ID : V_MPEG4/ISO/AVC
Duration : 2h 1mn
Bit rate : 1 884 Kbps
Width : 1 920 pixels
Height : 796 pixels
Display aspect ratio : 2.40:1
Frame rate mode : Constant
Frame rate : 23.976 fps
Color space : YUV
Chroma subsampling : 4:2:0
Bit depth : 8 bits
Scan type : Progressive
Bits/(Pixel*Frame) : 0.051
Stream size : 1.60 GiB (77%)
Language : English
Default : Yes
Forced : No
Audio #1
ID : 2
Format : MPEG Audio
Format version : Version 1
Format profile : Layer 3
Mode : Joint stereo
Mode extension : MS Stereo
Codec ID : A_MPEG/L3
Codec ID/Hint : MP3
Duration : 2h 1mn
Bit rate mode : Constant
Bit rate : 128 Kbps
Channel(s) : 2 channels
Sampling rate : 48.0 KHz
Compression mode : Lossy
Stream size : 111 MiB (5%)
Title : O'zbek Tili
Language : Uzbek
Default : Yes
Forced : No
Audio #2
ID : 3
Format : AC-3
Format/Info : Audio Coding 3
Mode extension : CM (complete main)
Format settings, Endianness : Big
Codec ID : A_AC3
Duration : 2h 1mn
Bit rate mode : Constant
Bit rate : 384 Kbps
Channel(s) : 6 channels
Channel positions : Front: L C R, Side: L R, LFE
Sampling rate : 48.0 KHz
Compression mode : Lossy
Stream size : 333 MiB (16%)
Title : Rus Tili
Language : Russian
Default : No
Forced : No
LAVHALAR


So‘ngi marta tahrirlandi: N.U.R.I.K.B.E.K (2018-11-26 18:01), Jami tahrirlangan 2 marta
Profil ShX

N.U.R.I.K.B.E.K ®

Jins:
Yigit
Staj:
1 yil 1 oy
Xabarlar:
344

Qayerdan: Jizzax. Paxtakor

Taqiq:

Qogani keginro to'g'irlanadi au

Mavzu yaratish 26-Noy-2018 04:51 (1 daqiqa o‘tgach)

Iqitibos

Profil ShX

Unofficial

Jins:
Yigit
Staj:
8 oy 21 kun
Xabarlar:
446

Qayerdan: Nukus

Taqiq:

Rollarda: Denzel Vashington, Pedro Paskal, Bill Pulman, Melisa Leo, Jonatan Skarf, Sakina Jefri, Kerolayn Dey, Orson Bin, Xaydi Garrou, Eshton Sanders.
Tavsif: Robert Makkol tarixining davom etishi, Ichki ishlar sobiq agenti, odil sudlovni mustaqil boshqarmoqchi

Mavzu yaratish 26-Noy-2018 09:45 (4 soat o‘tgach)

Iqitibos

Profil ShX

N.U.R.I.K.B.E.K ®

Jins:
Yigit
Staj:
1 yil 1 oy
Xabarlar:
344

Qayerdan: Jizzax. Paxtakor

Taqiq:

Unofficial, Raxmat

Mavzu yaratish 26-Noy-2018 16:16 (6 soat o‘tgach)

Iqitibos

Profil ShX
Xabarlarni ko‘rsatish:    

Hozirgi vaqt: 17-Dek 09:29

Vaqtlar farqi: UTC + 5



Siz mavzu yaratishingiz mumkin emas
Siz xabarlarga javob qaytarishingiz mumkin emas
Siz o‘z xabarlaringizni tahrirlashingiz mumkin emas
Siz o‘z xabarlaringizni o‘chirishingiz mumkin emas
Siz so‘rovlarda ovoz berishingiz mumkin emas
Siz xabalarga fayllarni biriktirishingiz mumkin emas
Siz fayllarni ko‘chirishingiz mumkin emas