Tarqatmalar statistikasi
Ko‘chirmoqdaman: [ 2 ]
 
     
 
 

Vampire_1987 ®

Jins:
Ko‘rsatilmagan
Staj:
1 yil
Xabarlar:
114
Taqiq:

- --Afina: Mabuda Urushi | Афина: Богиня войны-Athena: Goddess Of War |Athena: Jeonjaeng-ui Yeoshin-- Chiqqan yili: 2010
Davlat: Южная Корея
Janr: экшн, триллер, романтика
Davomiyligi: 20 серий ~ 60 минут
Tarjima: Professional (O`zbek tilida) (Kores tilidan)--Rejissior: Kim Myung Joon, Kim Tae Hoon, Hwang Jung Hyun--Rollarda:
Jung Woo Sung - Lee Jung Woo
Cha Seung Won - Son Hyuk
Soo Ae - Yoon Hye In
Lee Ji Ah - Han Jae Hee
Kim Min Jong - Kim Ki Soo
Choi Si Won - Kim Joon Ho
Lee Bo Young - Jo Soo Young
Lee Jung Gil - Jo Myung Ho
Kim Seung Woo - Park Chul Young
Kim So Yun - Kim Sun Hwa
Yoo Dong Geun - Kwon Yong Gwan
Son Ji Hoon - Hong Jin Suk
Kim Young Ae - Choi Jin Hee-• Lee Han Wie
• Yoo Tae Woong
• Sean Richard
• Oh Chang Suk
• Bang Kil Seung
• Do Ye Sung
• BoA as female singer (cameo)
• Girls' Generation (cameo)
• Chu Sung Hoon (cameo)
• Ryu Dam (cameo)
• Jin Goo (cameo)
• Park Sung Woong as Jin Young (cameo)
--Malumot: "Afina" deb ataladigan va yomon daho Song Hyok boshchiligidagi terroristik guruh Koreya va butun dunyoga tahdid solmoqchi boladi. Butun dunyoni qutqarib qolish, Milliy Xavfsizlik agentligi agenti Li Jeong Vuga bog'liq. Ular terrorchilar guruhining rejalarini ochib bera oladimi? Janubiy Koreya Prezidentining qizi Cho Su Young Italiyada o'g'irlab ketiladi va yashirinib yurgan Jeong Wu va uning komandasiga uni topish va uni qaytarish vazifasi topshiriladi.-- --Sifat: HDTVRip-AVC
Format: AVI
Video kodek: H.26x
Audio kodek: AC3
Video: MPEG4 Video (H264) 1280x720 29.97fps ~3033kbps
Audio: 2xDolby AC3 48000Hz stereo 384kbps (O`zbek tili) (Kores tilidan)---

MI

General
Format : AVI
Format/Info : Audio Video Interleave
Format profile : OpenDML
Format settings : rec
File size : 1.66 GiB
Duration : 1h 2mn
Overall bit rate : 3 810 Kbps
Writing application : AVI-Mux GUI 1.17.8.3, Feb 16 201019:42:50
Video
ID : 0
Format : AVC
Format/Info : Advanced Video Codec
Format profile : High@L5.1
Format settings, CABAC : Yes
Format settings, ReFrames : 2 frames
Codec ID : H264
Duration : 1h 2mn
Bit rate : 3 000 Kbps
Width : 1 280 pixels
Height : 720 pixels
Display aspect ratio : 16:9
Frame rate : 29.970 fps
Color space : YUV
Chroma subsampling : 4:2:0
Bit depth : 8 bits
Scan type : Progressive
Bits/(Pixel*Frame) : 0.109
Stream size : 1.32 GiB (80%)
Writing library : x264 core 50 svn-569
Encoding settings : cabac=1 / ref=1 / deblock=1:0:0 / analyse=0x3:0x113 / me=hex / subme=5 / brdo=0 / mixed_ref=0 / me_range=16 / chroma_me=1 / trellis=1 / 8x8dct=1 / cqm=0 / chroma_qp_offset=0 / slices=1 / nr=0 / decimate=1 / bframes=2 / b_pyramid=0 / b_adapt=1 / b_bias=0 / direct=2 / wpredb=1 / bime=0 / keyint=250 / keyint_min=25 / scenecut=40 / rc=abr / bitrate=3000 / ratetol=1.0 / rceq='blurCplx^(1-qComp)' / qcomp=0.60 / qpmin=10 / qpmax=51 / qpstep=4 / ip_ratio=1.40 / pb_ratio=1.30
Audio #1
ID : 1
Format : AC-3
Format/Info : Audio Coding 3
Mode extension : CM (complete main)
Format settings, Endianness : Big
Codec ID : 2000
Duration : 1h 2mn
Bit rate mode : Constant
Bit rate : 384 Kbps
Channel(s) : 2 channels
Channel positions : Front: L R
Sampling rate : 48.0 KHz
Bit depth : 16 bits
Compression mode : Lossy
Stream size : 172 MiB (10%)
Alignment : Aligned on interleaves
Interleave, duration : 64 ms (1.92 video frames)
Interleave, preload duration : 192 ms
Title : Afina.s01e01.Uzb
Audio #2
ID : 2
Format : AC-3
Format/Info : Audio Coding 3
Mode extension : CM (complete main)
Format settings, Endianness : Big
Codec ID : 2000
Duration : 1h 2mn
Bit rate mode : Constant
Bit rate : 384 Kbps
Channel(s) : 2 channels
Channel positions : Front: L R
Sampling rate : 48.0 KHz
Bit depth : 16 bits
Compression mode : Lossy
Stream size : 172 MiB (10%)
Alignment : Aligned on interleaves
Interleave, duration : 64 ms (1.92 video frames)
Interleave, preload duration : 192 ms
Profil ShX

Vampire_1987 ®

Jins:
Ko‘rsatilmagan
Staj:
1 yil
Xabarlar:
114
Taqiq:

Oforum Kamchiliklari Ertaga Dovom Etiriladi!

Mavzu yaratish 26-Avg-2017 00:39 (50 soniya o‘tgach)

Iqitibos

Profil ShX

Frozen

Jins:
Yigit
Staj:
1 yil 1 oy
Xabarlar:
58

Qayerdan: Toshkent, Navoi

Taqiq:

E qoyil. Gap yo`q lekin. ay

Mavzu yaratish 26-Avg-2017 00:53 (14 daqiqa o‘tgach)

Iqitibos

Profil ShX
Xabarlarni ko‘rsatish:    

Hozirgi vaqt: 21-Sen 10:37

Vaqtlar farqi: UTC + 5



Siz mavzu yaratishingiz mumkin emas
Siz xabarlarga javob qaytarishingiz mumkin emas
Siz o‘z xabarlaringizni tahrirlashingiz mumkin emas
Siz o‘z xabarlaringizni o‘chirishingiz mumkin emas
Siz so‘rovlarda ovoz berishingiz mumkin emas
Siz xabalarga fayllarni biriktirishingiz mumkin emas
Siz fayllarni ko‘chirishingiz mumkin emas