˂
˃
Tarqatmalar statistikasi
Ko‘chirmoqdaman: [ 8 ]
Ko‘chirib bo‘ldim: [ 1 ]
 
     
 
 

Dj.Max ®

Jins:
Yigit
Staj:
5 oy 23 kun
Xabarlar:
23

Qayerdan: Farg'ona

Taqiq:

Afsungar / Merlin / Мерлин-- Chiqqan yili: 2008
Davlat: Buyuk Britaniya
Janr: fantastika, drama, tarixiy
Davomiyligi: 00:43:00 Х 13
Tarjima: [Yoshlar] telekanali dublyaji (Kadr ortidan)-Rejissyor: Djeyms Xouz, Djulian Djons, Djeyk Michi, Djonni Kaps, Djulian Merfi--Rollarda: Kolin Morgan, Endjel Kolbi, Bredli Djeyms, Keti MakGrat, Entoni Xed, Richard Uilson, Rupert Yang, Emiliya Foks, Maykl Kronin, Mishel Rayan, Eyn Meken, Tom Ellis, Eysa Batterfild, Kerolayn Faber, Santyago Kabrera, Elis Patten, Adam Godli, Sara Perish, Devid Darxem, Maykl Djenn, Lora Donnelli, Kelam Makferson, Gari Oliver, Rik Inglish, Trevor Sellers, Ed Koulmen, Miranda Reyson, Iv Mayls, Luiz Dilan--Tavsif: Mo'jizalar zamonida va afsonalar diyorida ulkan qirollik taqdiri yosh bir yigitchaga bog'liq edi. Uning ismi - Merlin!-- --Sifat: HDRip (AVC)
Format: AVI
Video: H264 1024x576 25fps 2588kbps
Audio: Uzbek / AAC / 2.0 / 48 kHz / 128 kbps / [Yoshlar TV]
Audio: Rus / AAC / 2.0 / 48 kHz / 128 kbps / [ТВ3]
Audio: Ingliz / AAC / 2.0 / 48 kHz / 128 kbps / [Original]-

Media Info

General
Complete name                  : Merlin 1-01 (Ajdarxo chaqirig'i) [Dj.Max].avi
Format                         : AVI
Format/Info                    : Audio Video Interleave
Format profile                 : OpenDML
Format settings                : rec
File size                      : 833 MiB
Duration                       : 39 min 2 s
Overall bit rate               : 2 983 kb/s
Movie name                     : Merlin [Dj.Max]
Writing application            : AVI-Mux GUI 1.17.8.3, Feb 16 201019:42:50
Video
ID                             : 0
Format                         : AVC
Format/Info                    : Advanced Video Codec
Format profile                 : Main@L3.1
Format settings                : CABAC / 1 Ref Frames
Format settings, CABAC         : Yes
Format settings, ReFrames      : 1 frame
Codec ID                       : H264
Duration                       : 39 min 2 s
Bit rate                       : 2 600 kb/s
Width                          : 1 024 pixels
Height                         : 576 pixels
Display aspect ratio           : 16:9
Frame rate mode                : Variable
Frame rate                     : 25.000 FPS
Color space                    : YUV
Chroma subsampling             : 4:2:0
Bit depth                      : 8 bits
Scan type                      : Progressive
Bits/(Pixel*Frame)             : 0.176
Stream size                    : 722 MiB (87%)
Writing library                : x264 core 129
Encoding settings              : cabac=1 / ref=1 / deblock=1:0:0 / analyse=0x1:0x131 / me=dia / subme=2 / psy=1 / psy_rd=1.00:0.00 / mixed_ref=0 / me_range=16 / chroma_me=1 / trellis=0 / 8x8dct=0 / cqm=0 / deadzone=21,11 / fast_pskip=1 / chroma_qp_offset=0 / threads=8 / lookahead_threads=1 / sliced_threads=0 / nr=0 / decimate=1 / interlaced=0 / bluray_compat=0 / constrained_intra=0 / bframes=0 / weightp=2 / keyint=250 / keyint_min=25 / scenecut=40 / intra_refresh=0 / rc_lookahead=40 / rc=abr / mbtree=1 / bitrate=2600 / ratetol=1.0 / qcomp=0.60 / qpmin=10 / qpmax=51 / qpstep=4 / ip_ratio=1.41 / aq=1:1.00
Audio #1
ID                             : 1
Format                         : AAC
Format/Info                    : Advanced Audio Codec
Format profile                 : LC
Codec ID                       : FF-2
Duration                       : 39 min 2 s
Bit rate                       : 125 kb/s
Channel(s)                     : 2 channels
Channel positions              : Front: L R
Sampling rate                  : 48.0 kHz
Frame rate                     : 46.875 FPS (1024 SPF)
Compression mode               : Lossy
Stream size                    : 35.0 MiB (4%)
Alignment                      : Split accross interleaves
Interleave, duration           : 21  ms (0.53 video frame)
Interleave, preload duration   : 103  ms
Title                          : Merlin 01 (O'zbek) [Dj.Max]
Audio #2
ID                             : 2
Format                         : AAC
Format/Info                    : Advanced Audio Codec
Format profile                 : LC
Codec ID                       : FF-2
Duration                       : 39 min 2 s
Bit rate                       : 125 kb/s
Channel(s)                     : 2 channels
Channel positions              : Front: L R
Sampling rate                  : 48.0 kHz
Frame rate                     : 46.875 FPS (1024 SPF)
Compression mode               : Lossy
Stream size                    : 35.0 MiB (4%)
Alignment                      : Split accross interleaves
Interleave, duration           : 21  ms (0.53 video frame)
Interleave, preload duration   : 65  ms
Title                          : Merlin 01 (Rus) [Dj.Max]
Audio #3
ID                             : 3
Format                         : AAC
Format/Info                    : Advanced Audio Codec
Format profile                 : LC
Codec ID                       : FF-2
Duration                       : 39 min 2 s
Bit rate                       : 125 kb/s
Channel(s)                     : 2 channels
Channel positions              : Front: L R
Sampling rate                  : 48.0 kHz
Frame rate                     : 46.875 FPS (1024 SPF)
Compression mode               : Lossy
Stream size                    : 35.0 MiB (4%)
Alignment                      : Split accross interleaves
Interleave, duration           : 21  ms (0.53 video frame)
Interleave, preload duration   : 67  ms
Title                          : Merlin 01 (Ingliz) [Dj.Max]
- © Template by Ilkhom1988


So‘ngi marta tahrirlandi: Dj.Max (2018-11-12 21:32), Jami tahrirlangan 1 marta
Profil ShX

Gr@nd

Jins:
Yigit
Staj:
1 yil 2 oy
Xabarlar:
158

Qayerdan: Jizzax Forish

Taqiq:

Dj.Max, ChUQUR Filimini qo'yishda davom etasizmi yoki bo'ldimi

Mavzu yaratish 28-Okt-2018 17:57 (1 soat 30 daqiqa o‘tgach)

Iqitibos

Profil ShX

Hacker_uzb

Jins:
Yigit
Staj:
1 oy
Xabarlar:
3
Taqiq:

Zur ekan Juda tiniq Qolganini xam Quyib bering please

Mavzu yaratish 12-Noy-2018 07:46 (14 kun o‘tgach)

Iqitibos

Profil ShX

Dj.Max ®

Jins:
Yigit
Staj:
5 oy 23 kun
Xabarlar:
23

Qayerdan: Farg'ona

Taqiq:

TORRENT FAYLNI YANGILANG. 1-MAVSUMNING BARCHA (13TA) QISMI JOYLANDI!

Mavzu yaratish 12-Noy-2018 21:33 (13 soat o‘tgach)

Iqitibos

Profil ShX

joxa

Jins:
Ko‘rsatilmagan
Staj:
2 oy 28 kun
Xabarlar:
1
Taqiq:

O'zi bu serial qancha mavsum va qismdan iborat ?

Mavzu yaratish 14-Noy-2018 13:59 (1 kun 16 soat o‘tgach)

Iqitibos

Profil ShX

Hacker_uzb

Jins:
Yigit
Staj:
1 oy
Xabarlar:
3
Taqiq:

Tarqatinglar Tarqatinglar 50 % da qolib ketdi Iltimos

Mavzu yaratish 16-Noy-2018 00:02 (1 kun 10 soat o‘tgach)

Iqitibos

Profil ShX

Soft-Release

Jins:
Yigit
Staj:
8 oy 28 kun
Xabarlar:
737

Qayerdan: Kattakurgan

Taqiq:

6757O'zi bu serial qancha mavsum va qismdan iborat ?
joxa, 65 Ta Qism 5 Ta Fasldan Iborat! Har Bitta Fasli 13 Ta Qismdan Iborat!

Mavzu yaratish 16-Noy-2018 13:57 (13 soat o‘tgach)

Iqitibos

Profil ShX

Hacker_uzb

Jins:
Yigit
Staj:
1 oy
Xabarlar:
3
Taqiq:

Kuchiraylik Please Razdache beringlar

Mavzu yaratish 19-Noy-2018 23:42 (3 kun o‘tgach)

Iqitibos

Profil ShX

olim1993

Jins:
Ko‘rsatilmagan
Staj:
6 oy 25 kun
Xabarlar:
2
Taqiq:

tarqatinglar iltimos

Mavzu yaratish 28-Noy-2018 12:02 (8 kun o‘tgach)

Iqitibos

Profil ShX
Xabarlarni ko‘rsatish:    

Hozirgi vaqt: 11-Dek 21:58

Vaqtlar farqi: UTC + 5



Siz mavzu yaratishingiz mumkin emas
Siz xabarlarga javob qaytarishingiz mumkin emas
Siz o‘z xabarlaringizni tahrirlashingiz mumkin emas
Siz o‘z xabarlaringizni o‘chirishingiz mumkin emas
Siz so‘rovlarda ovoz berishingiz mumkin emas
Siz xabalarga fayllarni biriktirishingiz mumkin emas
Siz fayllarni ko‘chirishingiz mumkin emas