˂
˃
Tarqatmalar statistikasi
Ko‘chirmoqdaman: [ 1 ]
Ko‘chirib bo‘ldim: [ 10 ]
 
     
 
 

N.U.R.I.K.B.E.K ®

Jins:
Yigit
Staj:
1 yil 1 oy
Xabarlar:
349

Qayerdan: Jizzax. Paxtakor

Taqiq:

-- -- --Alfa | Альфа | Alpha-- Chiqqan yili: 2018
Davlat: AQSH
Janr: Drama, Sarguzasht, Oilaviy,
Davomiyligi: 01:36:30
Tarjima: Professional
Tarjima #1: Professional (Yoshlar) O'zbek Tilida
Tarjima #2: Professional (litsenziya) Rus Tilida-- Rejissyor: Albert Xyuz-- Rollarda: Kodi Smit-MakFi, Natasha Malte, Leonor Varela, Youxannes Xyoykyur Youxannesson, Yens Xulten, Mersedes De La Zerda, Priya Radjaratnam, Spenser Bogert, Patrik Flenegan, Maykl Kruz Dal.-- Tavsif: Eramizdan avvalgi o'tmishda yosh yigit buyvullarni ovlash vaqtida o'z qabilasidan ajralib chiqib, uyga qaytish uchun bor kuchini ishga soladi. U xuddi o'ziga o'hshab yo'qolgan yo'ldoshi bo'ri bilan uchrashadi va u bilan do'stlasha boshlaydi.- Videoning sifati: WEB-DLRip 1080p Full HD
Video format: MKV-- Video: MPEG4 Video (H264) 1920x1080 23.976fps
Audio: MP3 48000Hz stereo 128kbps O'zbek Tili
Audio 2: Dolby AC3 48000Hz 6ch 384kbps Rus Tili--

Media Info

General
Format : Matroska
Format version : Version 4 / Version 2
File size : 1.73 GiB
Duration : 1h 36mn
Overall bit rate : 2 563 Kbps
Video
ID : 1
Format : AVC
Format/Info : Advanced Video Codec
Format profile : High@L4
Format settings, CABAC : Yes
Format settings, ReFrames : 1 frame
Format settings, GOP : M=1, N=25
Codec ID : V_MPEG4/ISO/AVC
Duration : 1h 36mn
Bit rate : 2 000 Kbps
Width : 1 920 pixels
Height : 1 080 pixels
Display aspect ratio : 16:9
Frame rate mode : Constant
Frame rate : 23.976 fps
Color space : YUV
Chroma subsampling : 4:2:0
Bit depth : 8 bits
Scan type : Progressive
Bits/(Pixel*Frame) : 0.040
Stream size : 1.35 GiB (78%)
Title : ALPHA_2018_WEB_DL_1080p-BLUEBIRD
Language : English
Default : Yes
Forced : No
Audio #1
ID : 2
Format : MPEG Audio
Format version : Version 1
Format profile : Layer 3
Mode : Joint stereo
Mode extension : MS Stereo
Codec ID : A_MPEG/L3
Codec ID/Hint : MP3
Duration : 1h 36mn
Bit rate mode : Constant
Bit rate : 128 Kbps
Channel(s) : 2 channels
Sampling rate : 48.0 KHz
Compression mode : Lossy
Stream size : 88.4 MiB (5%)
Title : O'zbek Tili
Writing library : LAME3.100Є
Default : Yes
Forced : No
Audio #2
ID : 3
Format : AC-3
Format/Info : Audio Coding 3
Mode extension : CM (complete main)
Format settings, Endianness : Big
Codec ID : A_AC3
Duration : 1h 36mn
Bit rate mode : Constant
Bit rate : 384 Kbps
Channel(s) : 6 channels
Channel positions : Front: L C R, Side: L R, LFE
Sampling rate : 48.0 KHz
Compression mode : Lossy
Stream size : 265 MiB (15%)
Title : Rus Tili
Language : Russian
Default : No
Forced : No
LAVHALAR


So‘ngi marta tahrirlandi: N.U.R.I.K.B.E.K (2018-10-30 13:07), Jami tahrirlangan 2 marta
Profil ShX

MRLG

Jins:
Yigit
Staj:
1 yil 4 oy
Xabarlar:
526
Taqiq:

6629Tarjima #1: Professional (Kinoteatr) O'zbek Tilida
Bu filmni qachon Kinoteatrdan berishga ulgurdi :)
6629Videoning sifati: BDRip 1080p Full HD
Balkim sifati "WEB-DL 1080p"dir


So‘ngi marta tahrirlandi: MRLG (2018-10-30 12:56), Jami tahrirlangan 1 marta

Mavzu yaratish 30-Okt-2018 12:54 (1 daqiqa o‘tgach)

Iqitibos

Profil ShX

N.U.R.I.K.B.E.K ®

Jins:
Yigit
Staj:
1 yil 1 oy
Xabarlar:
349

Qayerdan: Jizzax. Paxtakor

Taqiq:

hechdan ko'ra kech, uzr reliz kechikdi, MRLG ga alohida raxmat

Mavzu yaratish 30-Okt-2018 12:56 (1 daqiqa o‘tgach)

Iqitibos

Profil ShX

N.U.R.I.K.B.E.K ®

Jins:
Yigit
Staj:
1 yil 1 oy
Xabarlar:
349

Qayerdan: Jizzax. Paxtakor

Taqiq:

MRLG, ag tayor reliz qilib tema opqo'yganman xarsafar reliz terib yurme deb, Bilasku meni bir-ikta xatosi bumasa bumepti relizlarim, odatga aylanvoti

Mavzu yaratish 30-Okt-2018 13:00 (4 daqiqa o‘tgach)

Iqitibos

Profil ShX

N.U.R.I.K.B.E.K ®

Jins:
Yigit
Staj:
1 yil 1 oy
Xabarlar:
349

Qayerdan: Jizzax. Paxtakor

Taqiq:

MRLG, shu farmatlar xaqida malumot bormi bir ko'rib chiqmasam umuman tushunmayapman

Mavzu yaratish 30-Okt-2018 13:09 (8 daqiqa o‘tgach)

Iqitibos

Profil ShX

Topik 2018 yil kinofilmlari (Premyeralar) forumidan HEVC Kinofilmlar ga ko‘chirildi
MRLG

Mavzu yaratish 30-Okt-2018 17:54 (4 soat o‘tgach)

Xabarlarni ko‘rsatish:    

Hozirgi vaqt: 18-Dek 00:49

Vaqtlar farqi: UTC + 5



Siz mavzu yaratishingiz mumkin emas
Siz xabarlarga javob qaytarishingiz mumkin emas
Siz o‘z xabarlaringizni tahrirlashingiz mumkin emas
Siz o‘z xabarlaringizni o‘chirishingiz mumkin emas
Siz so‘rovlarda ovoz berishingiz mumkin emas
Siz xabalarga fayllarni biriktirishingiz mumkin emas
Siz fayllarni ko‘chirishingiz mumkin emas