˂
˃
Tarqatmalar statistikasi
Ko‘chirmoqdaman: [ 3 ]
Ko‘chirib bo‘ldim: [ 3 ]
 
     
 
 

Asilbek 007 ®

Jins:
Ko‘rsatilmagan
Staj:
8 oy 1 kun
Xabarlar:
13
Taqiq:

Alfa | Альфа | Alpha- Chiqqan Yili: 2018
Davlat: AQSH
Janr: Drama, Sarguzasht, Oilaviy,
Davomiyligi: 01:36:30
Tarjima: Professional (Dublyaj Qilingan)
Tarjima 2: Professional (Ko'p Ovozli Kadr Ortidan) iTunes-Subtitrlar: Ruscha, (Forced, Full) Ukraincha (Full), Inglizcha-Rejissyor: Albert Xyuz-Rollarda: Kodi Smit-Makfi, Natasha Malte, Leonor Varela,Yens Xullten,Mersedes De La Serda-Tavsif: 20.000 yil muqaddam Yer sovuq va noqulay joy edi, unda o'lim har doim inson uchun kutib turardi, va hayot o'ljani haydash mumkinmi yoki yo'qligiga bog'liq edi. Hayot va madaniyat standarti jihatidan sayyoramizdagi eng rivojlangan qabiladan bo'lgan yosh ovchi, o'lik xavf-xatarlarga to'la dushmanona dunyo bilan yolg'iz topadi. U qo'rquvning yuziga qarab, uyiga yo'l topishi kerak. Va, ehtimol, butun insoniyatning taqdiri safarining natijasiga bog'liq.- -Videoning Sifati: WEB-DL 1080p
Video Format: MKV
Video: АVС, 1920x800, 4556 kb/s, 23.976 FPS
Audio: AC3, 6 ch, 384 kbit/s Ruscha
Audio 2: AC3, 6 ch, 384 kbit/s Inglizcha
Audio 3: AАC, 2 ch, 160 kbit/s Ukraincha-

MediaInfo

General
Unique ID : 244825949951959949947873389177704776850 (0xB82FC34802DB20BA9CE9F4341CCF8492)
Complete name : D:\game\ALPHA_2018_WEB_DL_1080p-BLUEBIRD.mkv
Format : Matroska
Format version : Version 4 / Version 2
File size : 3.68 GiB
Duration : 1 h 36 min
Overall bit rate : 5 453 kb/s
Movie name : ALPHA_2018_WEB_DL_1080p-BLUEBIRD
Encoded date : UTC 2018-10-25 18:47:38
Writing application : mkvmerge v6.9.1 ('Blue Panther') 32bit built on Apr 18 2014 18:15:44
Writing library : libebml v1.3.0 + libmatroska v1.4.1
Video
ID : 1
Format : AVC
Format/Info : Advanced Video Codec
Format profile : High@L4
Format settings : CABAC / 5 Ref Frames
Format settings, CABAC : Yes
Format settings, ReFrames : 5 frames
Codec ID : V_MPEG4/ISO/AVC
Duration : 1 h 36 min
Width : 1 920 pixels
Height : 800 pixels
Display aspect ratio : 2.40:1
Frame rate mode : Constant
Frame rate : 23.976 (24000/1001) FPS
Color space : YUV
Chroma subsampling : 4:2:0
Bit depth : 8 bits
Scan type : Progressive
Title : ALPHA_2018_WEB_DL_1080p-BLUEBIRD
Language : English
Default : Yes
Forced : No
Color range : Limited
Color primaries : BT.709
Transfer characteristics : BT.709
Matrix coefficients : BT.709
Audio #1
ID : 2
Format : AC-3
Format/Info : Audio Coding 3
Codec ID : A_AC3
Duration : 1 h 36 min
Bit rate mode : Constant
Bit rate : 384 kb/s
Channel(s) : 6 channels
Channel positions : Front: L C R, Side: L R, LFE
Sampling rate : 48.0 kHz
Frame rate : 31.250 FPS (1536 SPF)
Bit depth : 16 bits
Compression mode : Lossy
Stream size : 265 MiB (7%)
Title : [DUB] DD 5.1 @ 384 kbps (iTunes)
Language : Russian
Service kind : Complete Main
Default : Yes
Forced : No
Audio #2
ID : 3
Format : AAC
Format/Info : Advanced Audio Codec
Format profile : LC
Codec ID : A_AAC-2
Duration : 1 h 36 min
Channel(s) : 2 channels
Channel positions : Front: L R
Sampling rate : 48.0 kHz
Frame rate : 46.875 FPS (1024 SPF)
Compression mode : Lossy
Title : [DUB] AAC 2.0 @ 160 kbps (iTunes)
Language : Ukrainian
Default : No
Forced : No
Audio #3
ID : 4
Format : AC-3
Format/Info : Audio Coding 3
Codec ID : A_AC3
Duration : 1 h 36 min
Bit rate mode : Constant
Bit rate : 384 kb/s
Channel(s) : 6 channels
Channel positions : Front: L C R, Side: L R, LFE
Sampling rate : 48.0 kHz
Frame rate : 31.250 FPS (1536 SPF)
Bit depth : 16 bits
Compression mode : Lossy
Stream size : 265 MiB (7%)
Title : [ORIGINAL] DD 5.1 @ 384 kbps (iTunes)
Language : English
Service kind : Complete Main
Default : No
Forced : No
Text #1
ID : 5
Format : UTF-8
Codec ID : S_TEXT/UTF8
Codec ID/Info : UTF-8 Plain Text
Title : Full-length
Language : Russian
Default : No
Forced : No
Text #2
ID : 6
Format : UTF-8
Codec ID : S_TEXT/UTF8
Codec ID/Info : UTF-8 Plain Text
Title : Full-length
Language : Ukrainian
Default : No
Forced : No
Text #3
ID : 7
Format : UTF-8
Codec ID : S_TEXT/UTF8
Codec ID/Info : UTF-8 Plain Text
Title : Full-length
Language : English
Default : No
Forced : No
Text #4
ID : 8
Format : UTF-8
Codec ID : S_TEXT/UTF8
Codec ID/Info : UTF-8 Plain Text
Title : Forced
Language : Russian
Default : Yes
Forced : No
Menu
00:00:00.000 : en:1
00:07:43.713 : en:2
00:10:56.072 : en:3
00:16:56.640 : en:4
00:21:43.301 : en:5
00:25:54.969 : en:6
00:32:36.620 : en:7
00:38:19.254 : en:8
00:42:37.387 : en:9
00:47:54.328 : en:10
00:54:07.409 : en:11
00:59:27.228 : en:12
01:07:08.981 : en:13
01:14:08.734 : en:14
01:18:56.271 : en:15
01:25:42.302 : en:16



So‘ngi marta tahrirlandi: Asilbek 007 (2018-10-26 22:18), Jami tahrirlangan 3 marta
Profil ShX

Unofficial

Jins:
Yigit
Staj:
8 oy 21 kun
Xabarlar:
446

Qayerdan: Nukus

Taqiq:

Qoyil


So‘ngi marta tahrirlandi: Unofficial (2018-10-26 21:24), Jami tahrirlangan 3 marta

Mavzu yaratish 26-Okt-2018 21:05 (32 daqiqa o‘tgach)

Iqitibos

Profil ShX

bekbola

Jins:
Ko‘rsatilmagan
Staj:
1 oy 23 kun
Xabarlar:
10
Taqiq:

O'zbekchasi yo'qmi?

Mavzu yaratish 26-Okt-2018 21:21 (16 daqiqa o‘tgach)

Iqitibos

Profil ShX

Unofficial

Jins:
Yigit
Staj:
8 oy 21 kun
Xabarlar:
446

Qayerdan: Nukus

Taqiq:

6575O'zbekchasi yo'qmi?
Ertaga hudo xoxlasa

Mavzu yaratish 26-Okt-2018 21:45 (24 daqiqa o‘tgach)

Iqitibos

Profil ShX

Unofficial

Jins:
Yigit
Staj:
8 oy 21 kun
Xabarlar:
446

Qayerdan: Nukus

Taqiq:

Asilbek 007, Qo'ldan kelganicha))

Mavzu yaratish 26-Okt-2018 21:54 (8 daqiqa o‘tgach)

Iqitibos

Profil ShX

Unofficial

Jins:
Yigit
Staj:
8 oy 21 kun
Xabarlar:
446

Qayerdan: Nukus

Taqiq:

Asilbek 007, man bu posterdan foydalaning, razmeri kichiraytirilgan

Mavzu yaratish 26-Okt-2018 22:05 (10 daqiqa o‘tgach)

Iqitibos

Profil ShX

Soft-Release

Jins:
Yigit
Staj:
9 oy 3 kun
Xabarlar:
738

Qayerdan: Kattakurgan

Taqiq:

Unofficial, Poster O'lchami Juda Katta Maximum 400x600 dan o'tmasligi kerak!
Asilbek 007, Mana shu Poster ni Joylang! O'rtacha 350x500 o'lchamda!

Mavzu yaratish 26-Okt-2018 22:06 (1 daqiqa o‘tgach)

Iqitibos

Profil ShX
Xabarlarni ko‘rsatish:    

Hozirgi vaqt: 18-Dek 01:20

Vaqtlar farqi: UTC + 5



Siz mavzu yaratishingiz mumkin emas
Siz xabarlarga javob qaytarishingiz mumkin emas
Siz o‘z xabarlaringizni tahrirlashingiz mumkin emas
Siz o‘z xabarlaringizni o‘chirishingiz mumkin emas
Siz so‘rovlarda ovoz berishingiz mumkin emas
Siz xabalarga fayllarni biriktirishingiz mumkin emas
Siz fayllarni ko‘chirishingiz mumkin emas