˂
˃
Tarqatmalar statistikasi
Ko‘chiraman: [ 1 ]
Ko‘chirmoqdaman: [ 19 ]
Ko‘chirib bo‘ldim: [ 52 ]
 
     
 
 

MRLG ®

Jins:
Yigit
Staj:
1 yil 4 oy
Xabarlar:
526
Taqiq:

Alfa | Альфа | Alpha-- Chiqqan yili: 2018
Davlat: AQSH
Janr: drama, sarguzasht, oilaviy
Davomiyligi: 01:36:30
Tarjima: Professional (Ko'p ovozli kadr ortidan) | Yoshlar
Rejissyor: Albert Xyuz / Albert Hughes-Rollarda: Kodi Smit-MakFi, Natasha Malte, Leonor Varela, Youxannes Xyoykyur Youxannesson, Yens Xulten, Mersedes De La Zerda, Priya Radjaratnam, Spenser Bogert, Patrik Flenegan, Maykl Kruz Dal-Tavsif: Eramizdan avvalgi o'tmishda yosh yigit buyvullarni ovlash vaqtida o'z qabilasidan ajralib chiqib, uyga qaytish uchun bor kuchini ishga soladi. U xuddi o'ziga o'hshab yo'qolgan yo'ldoshi bo'ri bilan uchrashadi va u bilan do'stlasha boshlaydi.- -Videoning sifati: WEB-DLRip
Video format: AVI
Video: Xvid, 720x304, 23.976fps, 1773kbps
Audio: MP3, 48000Hz, stereo, 128kbps-

Media Info

Общее
Полное имя : D:\Кино\Tarjima filmlar\Alpha.2018.WEB-DLRip.(Yoshlar.Dub)-MRLG.avi
Формат : AVI
Формат/Информация : Audio Video Interleave
Размер файла : 1,29 Гбайт
Продолжительность : 1 ч. 36 м.
Общий поток : 1911 Кбит/сек
Программа кодирования : VirtualDubMod 1.5.10.3 (build 2550/release)
Библиотека кодирования : VirtualDubMod build 2550/release
Видео
Идентификатор : 0
Формат : MPEG-4 Visual
Профиль формата : Advanced Simple@L5
Настройки формата : BVOP1 / Custom Matrix
Параметр BVOP формата : 1
Параметр QPel формата : Нет
Параметр GMC формата : Без точки перехода
Параметр матрицы формата : Выборочная
Идентификатор кодека : XVID
Идентификатор кодека/Подсказка : XviD
Продолжительность : 1 ч. 36 м.
Битрейт : 1774 Кбит/сек
Ширина : 720 пикселей
Высота : 304 пикселя
Соотношение сторон : 2,35:1
Частота кадров : 23,976 (24000/1001) кадра/сек
Цветовое пространство : YUV
Субдискретизация насыщенности : 4:2:0
Битовая глубина : 8 бит
Тип развёртки : Прогрессивная
Метод сжатия : С потерями
Бит/(Пиксели*Кадры) : 0.338
Размер потока : 1,20 Гбайт (93%)
Библиотека кодирования : XviD 73
Аудио
Идентификатор : 1
Формат : MPEG Audio
Версия формата : Version 1
Профиль формата : Layer 3
Настройки формата : Joint stereo / MS Stereo
Идентификатор кодека : 55
Идентификатор кодека/Подсказка : MP3
Продолжительность : 1 ч. 36 м.
Вид битрейта : Постоянный
Битрейт : 128 Кбит/сек
Каналы : 2 канала
Частота : 48,0 КГц
Частота кадров : 41,667 кадра/сек (1152 SPF)
Метод сжатия : С потерями
Размер потока : 88,4 Мбайт (7%)
Выравнивание : Соединение по промежуткам
Продолжительность промежутка : 42 мс. (1,00 видеокадр)
Время предзагрузки промежутка : 504 мс.
Библиотека кодирования : LAME3.100
Настройки программы : -m j -V 4 -q 2 -lowpass 17 -b 128

Miniatyura

LAVHALAR
Profil ShX

AxeL

Jins:
Yigit
Staj:
8 oy 30 kun
Xabarlar:
613

Qayerdan: Gronland, Norway

Taqiq:

e bunaqasi bo'magan lekin gap yo'q! charchamang

Mavzu yaratish 28-Okt-2018 12:06 (28 daqiqa o‘tgach)

Iqitibos

Profil ShX

N.U.R.I.K.B.E.K

Jins:
Yigit
Staj:
1 yil 1 oy
Xabarlar:
344

Qayerdan: Jizzax. Paxtakor

Taqiq:

AxeL, qanaqasi

Mavzu yaratish 28-Okt-2018 14:07 (2 soat o‘tgach)

Iqitibos

Profil ShX

God of War

Jins:
Ko‘rsatilmagan
Staj:
7 oy 21 kun
Xabarlar:
7
Taqiq:

MRLG, +++++

Mavzu yaratish 21-Noy-2018 19:58 (24 kun o‘tgach)

Iqitibos

Profil ShX
Xabarlarni ko‘rsatish:    

Hozirgi vaqt: 17-Dek 09:41

Vaqtlar farqi: UTC + 5



Siz mavzu yaratishingiz mumkin emas
Siz xabarlarga javob qaytarishingiz mumkin emas
Siz o‘z xabarlaringizni tahrirlashingiz mumkin emas
Siz o‘z xabarlaringizni o‘chirishingiz mumkin emas
Siz so‘rovlarda ovoz berishingiz mumkin emas
Siz xabalarga fayllarni biriktirishingiz mumkin emas
Siz fayllarni ko‘chirishingiz mumkin emas