˂
˃
Tarqatmalar statistikasi
Yoʻq
 
     
 
 

Deadpool ®

Jins:
Yigit
Staj:
1 yil
Xabarlar:
16

Qayerdan: Andijan, Kurgantepa

Taqiq:

Alovuddinning Yangi Sarguzashtlari | LES NOUVELLES AVENTURES D'ALADIN
Davlat: Fransiya, Belgiya
Janr: Komediya
Chiqqan yili: 2015
Davomiyligi: 01:44:45
Tarjima: Professional (dublyaj qilingan)
Subtitrlar: yo'q
Original ovoz yo'lagi: Boshqa Rejissiyor: Arthur Benzaquen
Senariy: Daive Cohen
Operator: Pierre Aïm
Montaj ustasi: Brian Schmitt
Kompozitor: Maxime Desprez,Michaël Tordjman Rollarda: Kev Adams, Jean Paul Rouve, Venessa Guide, William Lebghil, Audrey Lamy, Eric Judor, Michael, Blance Malumot: Думаете, вы знаете историю про Аладдина? Как бы не так, оказывается у этой истории еще много неизвестных страниц. Мы расскажем вам эту сказку совершенно по-новому, добро пожаловать в самое сердце Багдада — города тысячи сокровищ, где на улицах летают ковры-самолеты, колдуны предлагают зелья для омоложения, а в замке томится принцесса, которая иногда тайком выбирается в город, где как раз и орудует находчивый и предприимчивый воришка по имени Аладдин… Videoning sifati: BDRip
Формат видео: MKV
Video: MPEG4 Video (H264) 1280x536 24fps [V: [English]]
Audio: MP3 44100Hz stereo [Uzbek]
Audio: Dolby AC3 48000Hz stereo [Russian]
Audio: DTS 48000Hz 6ch [French]

MediaInfo

General
Unique ID : 235787783563840443317488934165234283004 (0xB16313461D9A3FA9909F01792B0B71FC)
Complete name : D:\МУЛЬТИМЕДИА\Aladdin.2015.Rus.French.Uzb.Stich.mkv
Format : Matroska
Format version : Version 4 / Version 2
File size : 4.66 GiB
Duration : 1h 45mn
Overall bit rate : 6 303 Kbps
Encoded date : UTC 2016-08-05 14:45:12
Writing application : mkvmerge v7.9.0 ('Birds') 64bit
Writing library : libebml v1.3.1 + libmatroska v1.4.2
DURATION : 01:45:45.038000000
NUMBER_OF_FRAMES : 242896
NUMBER_OF_BYTES : 152280919
_STATISTICS_WRITING_APP : mkvmerge v7.9.0 ('Birds') 64bit
_STATISTICS_WRITING_DATE_UTC : 2016-08-05 14:45:12
_STATISTICS_TAGS : BPS DURATION NUMBER_OF_FRAMES NUMBER_OF_BYTES
Video
ID : 1
Format : AVC
Format/Info : Advanced Video Codec
Format profile : High@L4.1
Format settings, CABAC : Yes
Format settings, ReFrames : 5 frames
Codec ID : V_MPEG4/ISO/AVC
Duration : 1h 45mn
Bit rate : 4 410 Kbps
Width : 1 280 pixels
Height : 536 pixels
Display aspect ratio : 2.40:1
Frame rate mode : Constant
Frame rate : 24.000 fps
Color space : YUV
Chroma subsampling : 4:2:0
Bit depth : 8 bits
Scan type : Progressive
Bits/(Pixel*Frame) : 0.268
Stream size : 3.17 GiB (68%)
Writing library : x264 core 148 r2665 a01e339
Encoding settings : cabac=1 / ref=5 / deblock=1:0:0 / analyse=0x3:0x113 / me=umh / subme=8 / psy=1 / psy_rd=1.00:0.00 / mixed_ref=1 / me_range=16 / chroma_me=1 / trellis=1 / 8x8dct=1 / cqm=0 / deadzone=21,11 / fast_pskip=1 / chroma_qp_offset=-2 / threads=12 / lookahead_threads=2 / sliced_threads=0 / nr=0 / decimate=1 / interlaced=0 / bluray_compat=0 / constrained_intra=0 / bframes=3 / b_pyramid=2 / b_adapt=2 / b_bias=0 / direct=3 / weightb=1 / open_gop=0 / weightp=2 / keyint=250 / keyint_min=24 / scenecut=40 / intra_refresh=0 / rc_lookahead=50 / rc=2pass / mbtree=1 / bitrate=4410 / ratetol=1.0 / qcomp=0.60 / qpmin=0 / qpmax=69 / qpstep=4 / cplxblur=20.0 / qblur=0.5 / ip_ratio=1.40 / aq=1:1.00
Language : English
Default : Yes
Forced : No
DURATION : 01:45:44.959000000
NUMBER_OF_FRAMES : 152279
NUMBER_OF_BYTES : 3495513004
_STATISTICS_WRITING_APP : mkvmerge v7.9.0 ('Birds') 64bit
_STATISTICS_WRITING_DATE_UTC : 2016-08-05 14:45:12
_STATISTICS_TAGS : BPS DURATION NUMBER_OF_FRAMES NUMBER_OF_BYTES
Audio #1
ID : 2
Format : AC-3
Format/Info : Audio Coding 3
Mode extension : CM (complete main)
Format settings, Endianness : Big
Codec ID : A_AC3
Duration : 1h 45mn
Bit rate mode : Constant
Bit rate : 192 Kbps
Channel(s) : 2 channels
Channel positions : Front: L R
Sampling rate : 48.0 KHz
Bit depth : 16 bits
Compression mode : Lossy
Stream size : 145 MiB (3%)
Language : Russian
Default : Yes
Forced : No
Audio #2
ID : 3
Format : DTS
Format/Info : Digital Theater Systems
Mode : 16
Format settings, Endianness : Big
Codec ID : A_DTS
Duration : 1h 45mn
Bit rate mode : Constant
Bit rate : 1 509 Kbps
Channel(s) : 6 channels
Channel positions : Front: L C R, Side: L R, LFE
Sampling rate : 48.0 KHz
Bit depth : 24 bits
Compression mode : Lossy
Stream size : 1.11 GiB (24%)
Language : French
Default : No
Forced : No
Audio #3
ID : 4
Format : MPEG Audio
Format version : Version 1
Format profile : Layer 3
Mode : Joint stereo
Mode extension : MS Stereo
Codec ID : A_MPEG/L3
Codec ID/Hint : MP3
Duration : 1h 45mn
Bit rate mode : Constant
Bit rate : 192 Kbps
Channel(s) : 2 channels
Sampling rate : 44.1 KHz
Compression mode : Lossy
Stream size : 145 MiB (3%)
Title : Stich
Writing library : LAME3.99.5
Language : Uzbek
Default : No
Forced : No
Menu
00:00:00.000 : en:00:00:00.000
00:07:02.542 : en:00:07:02.542
00:12:41.750 : en:00:12:41.750
00:21:19.292 : en:00:21:19.292
00:26:46.708 : en:00:26:46.708
00:36:44.000 : en:00:36:44.000
00:40:41.333 : en:00:40:41.333
00:45:36.667 : en:00:45:36.667
00:49:55.042 : en:00:49:55.042
00:55:58.750 : en:00:55:58.750
01:04:55.208 : en:01:04:55.208
01:07:54.458 : en:01:07:54.458
01:17:07.833 : en:01:17:07.833
01:22:01.625 : en:01:22:01.625
01:32:15.625 : en:01:32:15.625
01:41:03.125 : en:01:41:03.125

Lavhalar

Profil ShX

Frozen

Jins:
Yigit
Staj:
1 yil 2 oy
Xabarlar:
58

Qayerdan: Toshkent, Navoi

Taqiq:

Posterni ong tomonga qilsez chiroyli chiqadi, kn rasmlarni [img] emas [thumb] variantini qoying, dizaynga gap yoq

Mavzu yaratish 27-Noy-2017 21:19 (1 soat 26 daqiqa o‘tgach)

Iqitibos

Profil ShX

Deadpool ®

Jins:
Yigit
Staj:
1 yil
Xabarlar:
16

Qayerdan: Andijan, Kurgantepa

Taqiq:

Frozen, javob uchun katta rahmat

Mavzu yaratish 27-Noy-2017 21:23 (3 daqiqa o‘tgach)

Iqitibos

Profil ShX

MRLG

Jins:
Yigit
Staj:
1 yil 2 oy
Xabarlar:
522
Taqiq:

bu filmni freetordan ko'chirib olganmidiz ? :)

Mavzu yaratish 27-Noy-2017 21:49 (25 daqiqa o‘tgach)

Iqitibos

Profil ShX

Deadpool ®

Jins:
Yigit
Staj:
1 yil
Xabarlar:
16

Qayerdan: Andijan, Kurgantepa

Taqiq:

MRLG, ha bir nechta kinolarni ko'chirib olgandim

Mavzu yaratish 27-Noy-2017 22:02 (13 daqiqa o‘tgach)

Iqitibos

Profil ShX

Vampire_1987

Jins:
Ko‘rsatilmagan
Staj:
1 yil 2 oy
Xabarlar:
115
Taqiq:

Deadpool,Dizayni ortiqcha bezamang Chiroyli korinishi orniga Xunik Korinadi!
Bulardan Ornak Oling http://uztracker.me/viewtopic.php?t=292

Mavzu yaratish 28-Noy-2017 05:46 (7 soat o‘tgach)

Iqitibos

Profil ShX

Deadpool ®

Jins:
Yigit
Staj:
1 yil
Xabarlar:
16

Qayerdan: Andijan, Kurgantepa

Taqiq:

nmaga licherlar tursaham tarqatmayapdi

Mavzu yaratish 29-Noy-2017 19:39 (1 kun 13 soat o‘tgach)

Iqitibos

Profil ShX

Frozen

Jins:
Yigit
Staj:
1 yil 2 oy
Xabarlar:
58

Qayerdan: Toshkent, Navoi

Taqiq:

Teredoni ornatganmisiz?

Mavzu yaratish 02-Dek-2017 17:17 (2 kun 21 soat o‘tgach)

Iqitibos

Profil ShX

Deadpool ®

Jins:
Yigit
Staj:
1 yil
Xabarlar:
16

Qayerdan: Andijan, Kurgantepa

Taqiq:

Frozen, yoq o'rnatmaganman

Mavzu yaratish 02-Dek-2017 20:36 (3 soat o‘tgach)

Iqitibos

Profil ShX

Vampire_1987

Jins:
Ko‘rsatilmagan
Staj:
1 yil 2 oy
Xabarlar:
115
Taqiq:

Deadpool, Salom teredoni Ornating xamda Ip ingizni ham bering )

Mavzu yaratish 05-Dek-2017 11:16 (2 kun 14 soat o‘tgach)

Iqitibos

Profil ShX
Xabarlarni ko‘rsatish:    

Hozirgi vaqt: 15-Noy 12:03

Vaqtlar farqi: UTC + 5



Siz mavzu yaratishingiz mumkin emas
Siz xabarlarga javob qaytarishingiz mumkin emas
Siz o‘z xabarlaringizni tahrirlashingiz mumkin emas
Siz o‘z xabarlaringizni o‘chirishingiz mumkin emas
Siz so‘rovlarda ovoz berishingiz mumkin emas
Siz xabalarga fayllarni biriktirishingiz mumkin emas
Siz fayllarni ko‘chirishingiz mumkin emas