Tarqatmalar statistikasi
Yoʻq
 
     
 
 

Abdulloh ®

Jins:
Ko‘rsatilmagan
Staj:
11 oy 21 kun
Xabarlar:
41
Taqiq:

Amerikada Ishlab Chiqarilgan | American Made.

Chiqqan yili: 2017
Davlat: AQSH
Janr: Jangari, Triller , Drama , Biografiya , Komediya
Davomiyligi: 01:54:52
-Tarjima: Professional (Ko'p ovozli kadr ortidan)
Tarjima haqida qo'shimcha ma'lumot: MY5
Subtitrlar: English (SDH)
Original ovoz yo'lagi: Inglizcha

-Rejissiyor: Dag Layman-Rollarda:
Tom Cruise, Donal Gleeson, Sara Raytlar, Jessi Plemons, Caleb Landry Jones, Lola Kirk, Jama Mace, Alejandro Edda, Benito Martines, E. Roger Mitchell

-Tavsif:
U AQShdagi Boeing 747 samolyotining eng yosh uchuvchisi edi va bir necha yil o'tgach, u Amerikadagi eng boy odamlardan biriga aylandi. Uning turmush tarzi uning ishi kabi haddan ziyod edi. Yopiq tanlovlar, hashamatli blondalar, salqin avtomobillar va xavfli bitimlar. Havodan pul topish qobiliyatiga ega edi.-Videoning sifati: BDRip
Video format: MKV
-Video: MPEG4 Video (H264, AVC) 1280x692 23.976fps, 5 555 kb/s
Audio: MP3 44100Hz stereo 320kbps [uzb]
Audio: Dolby AC3 48000Hz 6ch 384kbps iTunes [rus]
Audio: Dolby AC3 48000Hz 6ch 640kbps Original [eng]

MediaInfo

Video
ID : 1
Format : AVC
Format/Info : Advanced Video Codec
Format profile : High@L4.1
Format settings, CABAC : Yes
Format settings, ReFrames : 9 frames
Codec ID : V_MPEG4/ISO/AVC
Duration : 1 h 54 min
Bit rate : 5 555 kb/s
Width : 1 280 pixels
Height : 692 pixels
Display aspect ratio : 1.85:1
Frame rate mode : Constant
Frame rate : 23.976 (24000/1001) FPS
Color space : YUV
Chroma subsampling : 4:2:0
Bit depth : 8 bits
Scan type : Progressive
Bits/(Pixel*Frame) : 0.262
Stream size : 4.36 GiB (82%)
Writing library : x264 core 148 r2705 3f5ed56
Encoding settings : cabac=1 / ref=9 / deblock=1:-3:-3 / analyse=0x3:0x133 / me=umh / subme=11 / psy=1 / psy_rd=1.05:0.05 / mixed_ref=1 / me_range=48 / chroma_me=1 / trellis=2 / 8x8dct=1 / cqm=0 / deadzone=21,11 / fast_pskip=0 / chroma_qp_offset=-3 / threads=32 / lookahead_threads=4 / sliced_threads=0 / nr=0 / decimate=0 / interlaced=0 / bluray_compat=0 / constrained_intra=0 / bframes=10 / b_pyramid=2 / b_adapt=2 / b_bias=0 / direct=3 / weightb=1 / open_gop=0 / weightp=2 / keyint=240 / keyint_min=23 / scenecut=40 / intra_refresh=0 / rc_lookahead=50 / rc=2pass / mbtree=0 / bitrate=5555 / ratetol=1.0 / qcomp=0.60 / qpmin=0 / qpmax=69 / qpstep=4 / cplxblur=20.0 / qblur=0.5 / vbv_maxrate=50000 / vbv_bufsize=62500 / nal_hrd=none / filler=0 / ip_ratio=1.40 / pb_ratio=1.30 / aq=3:0.80
Language : English
Default : Yes
Forced : No
Audio #1
ID : 2
Format : MPEG Audio
Format version : Version 1
Format profile : Layer 3
Format settings : Joint stereo
Codec ID : A_MPEG/L3
Codec ID/Hint : MP3
Duration : 1 h 54 min
Bit rate mode : Constant
Bit rate : 320 kb/s
Channel(s) : 2 channels
Sampling rate : 44.1 kHz
Frame rate : 38.281 FPS (1152 SPF)
Compression mode : Lossy
Stream size : 263 MiB (5%)
Title : UZB A-Studio
Language : Uzbek
Default : No
Forced : No
Audio #2
ID : 3
Format : AC-3
Format/Info : Audio Coding 3
Codec ID : A_AC3
Duration : 1 h 54 min
Bit rate mode : Constant
Bit rate : 384 kb/s
Channel(s) : 6 channels
Channel positions : Front: L C R, Side: L R, LFE
Sampling rate : 48.0 kHz
Frame rate : 31.250 FPS (1536 SPF)
Bit depth : 16 bits
Compression mode : Lossy
Stream size : 316 MiB (6%)
Title : iTunes
Language : Russian
Service kind : Complete Main
Default : Yes
Forced : No
Audio #3
ID : 4
Format : AC-3
Format/Info : Audio Coding 3
Codec ID : A_AC3
Duration : 1 h 54 min
Bit rate mode : Constant
Bit rate : 640 kb/s
Channel(s) : 6 channels
Channel positions : Front: L C R, Side: L R, LFE
Sampling rate : 48.0 kHz
Frame rate : 31.250 FPS (1536 SPF)
Bit depth : 16 bits
Compression mode : Lossy
Stream size : 526 MiB (9%)
Title : Original
Language : English
Service kind : Complete Main
Default : No
Forced : No
Text
ID : 5
Format : UTF-8
Codec ID : S_TEXT/UTF8
Codec ID/Info : UTF-8 Plain Text
Duration : 1 h 45 min
Bit rate : 68 b/s
Count of elements : 1766
Stream size : 52.9 KiB (0%)
Title : SDH
Language : English
Default : No
Forced : No
Menu
00:00:00.000 : en:Chapter 1
00:06:00.318 : en:Chapter 2
00:10:42.516 : en:Chapter 3
00:14:36.500 : en:Chapter 4
00:21:19.611 : en:Chapter 5
00:27:25.226 : en:Chapter 6
00:33:47.692 : en:Chapter 7
00:41:02.585 : en:Chapter 8
00:46:16.023 : en:Chapter 9
00:51:57.114 : en:Chapter 10
00:54:59.713 : en:Chapter 11
00:59:58.177 : en:Chapter 12
01:07:29.837 : en:Chapter 13
01:13:06.507 : en:Chapter 14
01:17:12.878 : en:Chapter 15
01:23:21.329 : en:Chapter 16
01:26:16.713 : en:Chapter 17
01:33:34.483 : en:Chapter 18
01:38:39.455 : en:Chapter 19
01:46:16.953 : en:Chapter 20
LAVHALAR
Profil ShX

MRLG

Jins:
Yigit
Staj:
1 yil 1 oy
Xabarlar:
465
Taqiq:

Ozroq o'zgartirish kiritdim.

Mavzu yaratish 14-Dek-2017 10:44 (9 soat o‘tgach)

Iqitibos

Profil ShX
Xabarlarni ko‘rsatish:    

Hozirgi vaqt: 21-Sen 10:56

Vaqtlar farqi: UTC + 5



Siz mavzu yaratishingiz mumkin emas
Siz xabarlarga javob qaytarishingiz mumkin emas
Siz o‘z xabarlaringizni tahrirlashingiz mumkin emas
Siz o‘z xabarlaringizni o‘chirishingiz mumkin emas
Siz so‘rovlarda ovoz berishingiz mumkin emas
Siz xabalarga fayllarni biriktirishingiz mumkin emas
Siz fayllarni ko‘chirishingiz mumkin emas