˂
˃
 

Gr@nd ®

Jins:
Yigit
Staj:
1 yil 1 oy
Xabarlar:
158

Qayerdan: Jizzax Forish

Taqiq:

Amerikada Ishlab Chiqarilgan | American Made- -Davlat: AQSH
Janr: Jangari, Triller , Drama , Biografiya , Komediya
Chiqqan yili: 2017
Davomiyligi: 01:54:59-Tarjima: Professional (dublyaj qilingan) O'zbek tilida-Rejissiyor: Dag Layman-Rollarda: Tom Cruise, Donal Gleeson, Sara Raytlar, Jessi Plemons, Caleb Landry Jones, Lola Kirk, Jama Mace, Alejandro Edda, Benito Martines, E. Roger Mitchell-Tavsif: U AQShdagi Boeing 747 samolyotining eng yosh uchuvchisi edi va bir necha yil o'tgach, u Amerikadagi eng boy odamlardan biriga aylandi. Uning turmush tarzi uning ishi kabi haddan ziyod edi. Yopiq tanlovlar, hashamatli blondalar, salqin avtomobillar va xavfli bitimlar. Havodan pul topish qobiliyatiga ega edi-Videoning sifati: BDRip
Format: MKV-Video: Xvid 704x384 23.976fps 1 326 Kbps
Audio: Dolby AC3 48000Hz / 6ch / 384 kbps Rus
Audio: MP3 48000Hz / 2ch / 128kbps Uzb
-

MediaInfo

General
Unique ID : 228011298016084424062863009373945935952 (0xAB8960EF41E3A860BF16DDD31B193850)
Format : Matroska
Format version : Version 4 / Version 2
File size : 1.51 GiB
Duration : 1h 54mn
Overall bit rate : 1 875 Kbps
Movie name : Xusan_Gr@nd
Encoded date : UTC 2017-12-15 13:30:24
Writing application : mkvmerge v6.8.0 ('Theme for Great Cities') 64bit built on Mar 2 2014 21:34:26
Writing library : libebml v1.3.0 + libmatroska v1.4.1
Video
ID : 1
Format : MPEG-4 Visual
Format profile : Advanced Simple@L5
Format settings, BVOP : Yes
Format settings, QPel : No
Format settings, GMC : No warppoints
Format settings, Matrix : Custom
Codec ID : XVID
Codec ID/Hint : XviD
Duration : 1h 54mn
Bit rate : 1 326 Kbps
Width : 704 pixels
Height : 384 pixels
Display aspect ratio : 1.85:1
Frame rate : 23.976 fps
Color space : YUV
Chroma subsampling : 4:2:0
Bit depth : 8 bits
Scan type : Progressive
Compression mode : Lossy
Bits/(Pixel*Frame) : 0.205
Stream size : 1.06 GiB (71%)
Writing library : XviD 73
Default : Yes
Forced : No
Audio #1
ID : 2
Format : AC-3
Format/Info : Audio Coding 3
Mode extension : CM (complete main)
Format settings, Endianness : Big
Codec ID : A_AC3
Duration : 1h 54mn
Bit rate mode : Constant
Bit rate : 384 Kbps
Channel(s) : 6 channels
Channel positions : Front: L C R, Side: L R, LFE
Sampling rate : 48.0 KHz
Bit depth : 16 bits
Compression mode : Lossy
Stream size : 316 MiB (20%)
Default : Yes
Forced : No
Audio #2
ID : 3
Format : MPEG Audio
Format version : Version 1
Format profile : Layer 3
Mode : Joint stereo
Codec ID : A_MPEG/L3
Codec ID/Hint : MP3
Duration : 1h 54mn
Bit rate mode : Constant
Bit rate : 128 Kbps
Channel(s) : 2 channels
Sampling rate : 44.1 KHz
Compression mode : Lossy
Stream size : 105 MiB (7%)
Title : Xusan_Gr@nd
Writing library : LAME3.98.2
Language : Uzbek
Default : No
Forced : No
--
Profil ShX

Gr@nd ®

Jins:
Yigit
Staj:
1 yil 1 oy
Xabarlar:
158

Qayerdan: Jizzax Forish

Taqiq:

Ko'chiri olgunlaringcha 24 soat Tarqataman

Mavzu yaratish 15-Dek-2017 19:02 (2 daqiqa o‘tgach)

Iqitibos

Profil ShX

BestBoy

Jins:
Yigit
Staj:
1 yil 1 oy
Xabarlar:
63
Taqiq:

Рахмат

Mavzu yaratish 15-Dek-2017 20:08 (1 soat 5 daqiqa o‘tgach)

Iqitibos

Profil ShX

BestBoy

Jins:
Yigit
Staj:
1 yil 1 oy
Xabarlar:
63
Taqiq:

1-2 soatdan keyn skachat bosaman kechqurun kompizni ochiraszmi?

Mavzu yaratish 15-Dek-2017 20:09 (1 daqiqa o‘tgach)

Iqitibos

Profil ShX

dilshod6663

Jins:
Ko‘rsatilmagan
Staj:
11 oy 19 kun
Xabarlar:
1
Taqiq:

raxmat kino uchun men xam skachat qilaman va tarqatishga uz xissamni qushaman

Mavzu yaratish 15-Dek-2017 22:05 (1 soat 56 daqiqa o‘tgach)

Iqitibos

Profil ShX
Xabarlarni ko‘rsatish:    

Hozirgi vaqt: 15-Noy 11:26

Vaqtlar farqi: UTC + 5



Siz mavzu yaratishingiz mumkin emas
Siz xabarlarga javob qaytarishingiz mumkin emas
Siz o‘z xabarlaringizni tahrirlashingiz mumkin emas
Siz o‘z xabarlaringizni o‘chirishingiz mumkin emas
Siz so‘rovlarda ovoz berishingiz mumkin emas
Siz xabalarga fayllarni biriktirishingiz mumkin emas
Siz fayllarni ko‘chirishingiz mumkin emas