˂
˃
Tarqatmalar statistikasi
Ko‘chirmoqdaman: [ 5 ]
Ko‘chirib bo‘ldim: [ 9 ]
 
     
 
 

rameo1988 ®

Jins:
Yigit
Staj:
1 oy 9 kun
Xabarlar:
50

Qayerdan: Tashkent

Taqiq:

Anjelika, farishtalar bekasi | Анжелика, маркиза ангелов | Angélique, marquise des anges- - -Chiqqan yili: 2013
Davlat: Frantsiya
Janr: Romantik, Sarguzashtlar
Davomiyligi: 01:52:48
Tarjima 1: Professional (Ko'p ovozli kadr ortidan) (O'zbek tilida)
Tarjima 2: Professional (dublyaj qilingan) (Rus tilida)
Tarjima 3: Professional (Original) (Fransuz tilida)-Rejissyor: Ariel Zeitoun-Rollarda: Nora Arnezeder, Uer Lanvin, Tomer Sisle, Simon Abkaryan, Devid Xoch, Matti Bougna, Migel Herz-Kestranek, Julian Weigend, Rainer Fribe, Florentsiya Kosta...-Tavsif: Fransiya XVII asr. Yosh go'zal Anjelika katta boylikka ega va "sehrgar" deb tan olingan Count de Peyracga erga tegadi. Dastlab Anjelika eri bilan nafratlanadi, lekin asta-sekin, qattiq qiyofada, yoqimtoy, mehribon, nozik va adolatli inson ekanini tushunadi. Haqiqiy sevgi er va xotinlar orasida ajralib chiqadi, ammo qisqa umr kechiradi.
Shoh Luis XIV, De Peyrac qal'asidan o'tib, oilaviy baxt va obro'si boyligini hasad qilishga boshlaydi. De Peyrac Bastilda qamoqqa tashlanadi va qatl qilinishini kutmoqda. Biroq Angelika oxirgi nafasda uning sevgisi uchun jang qilishga tayyor. Baquvvat irodasi va mustaqil go'zalligi yordami bilan, u uzoq vaqtdan beri uni sobiq sevgilisi Parij brigadalari lideri oldiga keladi.- Reyting:
-Videoning sifati: BDRip 720p
Video format: MKV
Video: AVC, (1280x720) 1 758 Kbps, 23,976 fps, 3 308 Kbps
Audio №1: MP3 / 44.1Hz stereo 2.0ch / 192 kbps / O'zbek tilida
Audio №2: AC-3 / 48Hz stereo 5.1ch / 448 Kbps / Rus tilida
Audio №3: AC-3 / 48Hz stereo 5.1ch / 448 kbps / Fran tilida
-

Media Info

D:\HD\Angelika.BDRip.720p [by ZET].mkv
General
Unique ID : 218672835460762862497966231123000293675 (0xA482DB2EDC75419F854F6AD2BB3FF92B)
Complete name : D:\HD\Angelika.BDRip.720p [by ZET].mkv
Format : Matroska
Format version : Version 4 / Version 2
File size : 3.53 GiB
Duration : 1h 52mn
Overall bit rate : 4 485 Kbps
Movie name : = Àíæåëèêà, ìàðêèçà àíãåëîâ / Angeique, marquise des anges BDRip 720p [by ZET] =
Encoded date : UTC 2015-05-23 04:23:34
Writing application : mkvmerge v6.9.1 ('Blue Panther') 32bit built on Apr 18 2014 18:15:44
Writing library : libebml v1.3.0 + libmatroska v1.4.1
Video #1
ID : 1
Format : AVC
Format/Info : Advanced Video Codec
Format profile : High@L4.1
Format settings, CABAC : Yes
Format settings, ReFrames : 10 frames
Codec ID : V_MPEG4/ISO/AVC
Duration : 1h 52mn
Bit rate : 3 308 Kbps
Width : 1 280 pixels
Height : 720 pixels
Display aspect ratio : 2.40:1
Frame rate : 23.976 fps
Color space : YUV
Chroma subsampling : 4:2:0
Bit depth : 8 bits
Scan type : Progressive
Bits/(Pixel*Frame) : 0.202
Stream size : 2.61 GiB (74%)
Title : Àíæåëèêà, ìàðêèçà àíãåëîâ / Angeique, marquise des anges BDRip 720p [by ZET]
Writing library : x264 core 142 r2479 dd79a61
Encoding settings : cabac=1 / ref=10 / deblock=1:-2:-2 / analyse=0x3:0x113 / me=umh / subme=11 / psy=1 / psy_rd=1.00:0.00 / mixed_ref=1 / me_range=48 / chroma_me=1 / trellis=2 / 8x8dct=1 / cqm=0 / deadzone=21,11 / fast_pskip=0 / chroma_qp_offset=-2 / threads=12 / lookahead_threads=1 / sliced_threads=0 / nr=0 / decimate=1 / interlaced=0 / bluray_compat=0 / constrained_intra=0 / bframes=10 / b_pyramid=2 / b_adapt=1 / b_bias=0 / direct=3 / weightb=1 / open_gop=0 / weightp=2 / keyint=240 / keyint_min=23 / scenecut=40 / intra_refresh=0 / rc_lookahead=40 / rc=crf / mbtree=0 / crf=19.0 / qcomp=0.60 / qpmin=0 / qpmax=69 / qpstep=4 / vbv_maxrate=62500 / vbv_bufsize=78125 / crf_max=0.0 / nal_hrd=none / filler=0 / ip_ratio=1.40 / pb_ratio=1.30 / aq=1:1.00
Language : French
Default : No
Forced : No
Audio #2
ID : 2
Format : MPEG Audio
Format version : Version 1
Format profile : Layer 3
Mode : Joint stereo
Mode extension : MS Stereo
Codec ID : A_MPEG/L3
Codec ID/Hint : MP3
Duration : 1h 52mn
Bit rate mode : Constant
Bit rate : 192 Kbps
Channel(s) : 2 channels
Sampling rate : 44.1 KHz
Compression mode : Lossy
Stream size : 155 MiB (4%)
Title : Uzbek (by ZET)
Language : Uzbek
Writing library : LAME3.99.5ªªªªªªªªªª
Default : Yes
Forced : No
Audio #3
ID : 3
Format : AC-3
Format/Info : Audio Coding 3
Mode extension : CM (complete main)
Format settings, Endianness : Big
Codec ID : A_AC3
Duration : 1h 52mn
Bit rate mode : Constant
Bit rate : 448 Kbps
Channel(s) : 6 channels
Channel positions : Front: L C R, Side: L R, LFE
Sampling rate : 48.0 KHz
Bit depth : 16 bits
Compression mode : Lossy
Stream size : 361 MiB (10%)
Title : Russian
Language : Russian
Default : No
Forced : No
Audio #4
ID : 4
Format : AC-3
Format/Info : Audio Coding 3
Mode extension : CM (complete main)
Format settings, Endianness : Big
Codec ID : A_AC3
Duration : 1h 52mn
Bit rate mode : Constant
Bit rate : 448 Kbps
Channel(s) : 6 channels
Channel positions : Front: L C R, Side: L R, LFE
Sampling rate : 48.0 KHz
Bit depth : 16 bits
Compression mode : Lossy
Stream size : 361 MiB (10%)
Title : French
Language : French
Default : No
Forced : No


So‘ngi marta tahrirlandi: rameo1988 (2018-12-22 14:24), Jami tahrirlangan 5 marta
Profil ShX

rameo1988 ®

Jins:
Yigit
Staj:
1 oy 9 kun
Xabarlar:
50

Qayerdan: Tashkent

Taqiq:

Juda Zo'r Kino Tavsiya qilaman
Uztracker uchun MAXSUS TAYYORLANDI
Oltin tarqatma kutib qolamiz

Mavzu yaratish 22-Dek-2018 13:51 (2 daqiqa o‘tgach)

Iqitibos

Profil ShX

Vampire_1987

Jins:
Ko‘rsatilmagan
Staj:
1 yil 4 oy
Xabarlar:
118
Taqiq:

rameo1988, Bu Kinoni Anjelika Deb nomlangan filim kino teatr Qisimlarga Bo'lib Beryabdi Shu Kinomi Bu Agar Shu kino Bo'lsa Nega Vaqti Oz Yoki Boshqa Qisimlari Ham Bormi ??

Mavzu yaratish 30-Dek-2018 13:33 (7 kun o‘tgach)

Iqitibos

Profil ShX

rameo1988 ®

Jins:
Yigit
Staj:
1 oy 9 kun
Xabarlar:
50

Qayerdan: Tashkent

Taqiq:

7125rameo1988, Bu Kinoni Anjelika Deb nomlangan filim kino teatr Qisimlarga Bo'lib Beryabdi Shu Kinomi Bu Agar Shu kino Bo'lsa Nega Vaqti Oz Yoki Boshqa Qisimlari Ham Bormi ??
Salom yo'q u bowqa davlat iwlagani a bu esa bowqa davlat iwlagani bu kinoniyam davomi bor xali kotta ekranlada bermadi buniyam tvda bervotkaniniym umumiy manosi 1ta Anjelika kitob asosida olingan filimlar juda ko'p

Mavzu yaratish 30-Dek-2018 18:07 (4 soat o‘tgach)

Iqitibos

Profil ShX

djaxa55555

Jins:
Yigit
Staj:
10 kun
Xabarlar:
4

Qayerdan: Тошкент

Taqiq:

Рахмат

Mavzu yaratish 13-Yan-2019 01:02 (13 kun o‘tgach)

Iqitibos

Profil ShX
Xabarlarni ko‘rsatish:    

Hozirgi vaqt: 23-Yan 03:07

Vaqtlar farqi: UTC + 5



Siz mavzu yaratishingiz mumkin emas
Siz xabarlarga javob qaytarishingiz mumkin emas
Siz o‘z xabarlaringizni tahrirlashingiz mumkin emas
Siz o‘z xabarlaringizni o‘chirishingiz mumkin emas
Siz so‘rovlarda ovoz berishingiz mumkin emas
Siz xabalarga fayllarni biriktirishingiz mumkin emas
Siz fayllarni ko‘chirishingiz mumkin emas