˂
˃
Tarqatmalar statistikasi
Ko‘chiraman: [ 1 ]
Ko‘chirmoqdaman: [ 3 ]
Ko‘chirib bo‘ldim: [ 5 ]
 
     
 
 

N.U.R.I.K.B.E.K ®

Jins:
Yigit
Staj:
1 yil 2 oy
Xabarlar:
365

Qayerdan: Jizzax. Paxtakor

Taqiq:

-Assasinlar | Кредо убийцы | Assassin's Creed
--Chiqqan yili: 2016
Davlat: Buyuk Britaniya, Gonkong, AQSH, Fransiya.
Janr: Fantastik, Hayoliy, Jangari, Sarguzasht.
Davomiyligi: 01:55:31
Tarjima: Professional (dublyaj qilingan)
Tarjima #1: Professional Kinoteatr O'zbek Tilida
Tarjima #2: Professional Rus Tilida--Rejissyor: Jastin Kurzel.--Rollarda: Maykl Fassbender, Marion Kotiyar, Jeremi Ayrons, Brendan Glison, Sharlotta Rempling, Maykl Kennet Uilyams, Deni Menoshe, Ariana Labed, Xalid Abdalla, Essi Devis.--Tavsif: O'tgan avlodlar xotiralarini eslab turuvchi inqilobiy texnologiyalar tufayli, Callum Lynch 15-asrning Ispaniyadagi ajdodi Aguilarning sarguzashtlari uyida. Callum, u sirli yashirin jinoyatchilar jamiyati a'zolarining avlodi ekanligini biladi. Ajablanarlisi bilim va mahorat to'planib, u bugungi kunda Templarsning kuchli va shafqatsiz tashkiloti bilan to'qnash kelmoqda.--Videoning sifati: BDRip
Video format: MKV--Video: XviD, 23.976 fps, 1349 Кбит/с, 720x304
Audio: MP3 48000Hz stereo 128kbps O'zbek Tili
Audio 2: Dolby AC3 48000Hz 6ch 448kbps Rus Tili
Subtitrlar: Rus Tilida-
-

Media Info

General
Format : Matroska
Format version : Version 4 / Version 2
File size : 1.55 GiB
Duration : 1 h 55 min
Overall bit rate : 1 927 kb/s
Encoded date : UTC 2018-12-10 16:00:17
Writing application : mkvmerge v15.0.0 ('Duel with the Devil') 64-bit
Writing library : libebml v1.3.5 + libmatroska v1.4.5
Video
ID : 1
Format : MPEG-4 Visual
Format profile : Advanced Simple@L5
Format settings, BVOP : 2
Format settings, QPel : No
Format settings, GMC : No warppoints
Format settings, Matrix : Default (MPEG)
Codec ID : V_MS/VFW/FOURCC / XVID
Codec ID/Hint : XviD
Duration : 1 h 55 min
Bit rate : 1 349 kb/s
Width : 720 pixels
Height : 304 pixels
Display aspect ratio : 2.35:1
Frame rate mode : Constant
Frame rate : 23.976 (24000/1001) FPS
Color space : YUV
Chroma subsampling : 4:2:0
Bit depth : 8 bits
Scan type : Progressive
Compression mode : Lossy
Bits/(Pixel*Frame) : 0.257
Stream size : 1.09 GiB (70%)
Writing library : XviD 1.2.1 (UTC 2008-12-04)
Default : Yes
Forced : No
Audio #1
ID : 2
Format : MPEG Audio
Format version : Version 1
Format profile : Layer 3
Mode : Joint stereo
Mode extension : MS Stereo
Codec ID : A_MPEG/L3
Codec ID/Hint : MP3
Duration : 1 h 55 min
Bit rate mode : Constant
Bit rate : 128 kb/s
Channel(s) : 2 channels
Sampling rate : 48.0 kHz
Frame rate : 41.667 FPS (1152 SPF)
Compression mode : Lossy
Stream size : 106 MiB (7%)
Title : O'zbek Tili
Writing library : LAME3.99.5
Language : Uzbek
Default : Yes
Forced : No
Audio #2
ID : 3
Format : AC-3
Format/Info : Audio Coding 3
Format settings, Endianness : Big
Codec ID : A_AC3
Duration : 1 h 55 min
Bit rate mode : Constant
Bit rate : 448 kb/s
Channel(s) : 6 channels
Channel positions : Front: L C R, Side: L R, LFE
Sampling rate : 48.0 kHz
Frame rate : 31.250 FPS (1536 SPF)
Bit depth : 16 bits
Compression mode : Lossy
Stream size : 370 MiB (23%)
Title : Rus Tili
Language : Russian
Service kind : Complete Main
Default : No
Forced : No
LAVHALAR
Profil ShX
Xabarlarni ko‘rsatish:    

Hozirgi vaqt: 23-Yan 01:29

Vaqtlar farqi: UTC + 5



Siz mavzu yaratishingiz mumkin emas
Siz xabarlarga javob qaytarishingiz mumkin emas
Siz o‘z xabarlaringizni tahrirlashingiz mumkin emas
Siz o‘z xabarlaringizni o‘chirishingiz mumkin emas
Siz so‘rovlarda ovoz berishingiz mumkin emas
Siz xabalarga fayllarni biriktirishingiz mumkin emas
Siz fayllarni ko‘chirishingiz mumkin emas