˂
˃
Tarqatmalar statistikasi
Ko‘chirmoqdaman: [ 6 ]
Ko‘chirib bo‘ldim: [ 18 ]
 
     
 
 

rameo1988 ®

Jins:
Yigit
Staj:
1 oy 9 kun
Xabarlar:
50

Qayerdan: Tashkent

Taqiq:

-Avatar| Аватар | Avatar
Kengaytirilgan Versiya | расширенная версия | Extended Cut
- -Chiqqan yili: 2009
Davlat: AQSH
Janr: Fantastik, Hayoliy, Jangari, Sarguzasht.
Davomiyligi: 02:58:10
Tarjima: Professional (Ko'p ovozli kadr ortidan) (O'zbek tilida)
Tarjima 2: Professional (dublyaj qilingan) (Rus tilida)
Subtitrlar: Ruscha (to'liq), inglizcha (Full), Inglizcha-Rejissyor: James Cameron-Rollarda: Sam Worthington-(Jake Sully), Zoe Saldana-(Neytiri), Sigourney Weaver-(Dr. Grace Augustine), Stephen Lang-(Colonel Miles Quaritch), Michelle Rodriguez-(Trudy Chacón), Giovanni Ribisi-(Parker Selfridge), Joel Moore-(Norm Spellman), CCH Pounder-(Moat), Wes Studi-(Eytukan), Laz Alonso-(Tsu'tey)...-Tavsif: Jeyl Sulli sobiq dengiz afitseri. Zaif tanasiga qaramay, Jake hali ham yuragida jangchi. U bir necha yorug'lik yillarini bosib Pandora sayyorasiga keladi, Tom o'lgandan kegin Uning o'rniga Jake Keladi va Aning AVATARiga joylashadi, Pandorada korporatsiyaga kerakli energiya inqirozidan chiqib ketishi uchun juda muhim ahamiyatga ega bo'lgan noyob mineralni o'zlashtirshadi, Avatarlar o'wa mineral toshning ustida joylashgan bo'ladi, Inson va Avatar o'rtasidagi Kotta Jang bo'ladi-Qo'sh. ma'lumot:
"Oskar" 2010 yil G'olib va Nominatsiyalar.
3ta G'olib
Eng yaxshi operator ishi
Eng yaxshi sahna
Eng yaxshi ingl. Effektlar
6ta Nominatsiyalar
Eng yaxshi film
Eng yaxshi rejissyor (Jeyms Kemeron)
Eng yaxshi ovoz
Eng yaxshi montaj
Eng yaxshi ovozni tahrirlash
Eng yaxshi soundtrack-"Oltin Globe" 2010 yi,l G'olib va Nominatsiyalar.
2ta G'olib
Eng yaxshi film (drama)
Eng yaxshi rejissyor (Jeyms Kemeron)
2ta Nominatsiyalar.
Eng yaxshi qo'shiq - "Men seni ko'raman"
Eng yaxshi soundtrack-Golden Eagle 2011 yil
1taG'olib
Rus kassasida eng yaxshi xorijiy film "Yigirmanchi asr tulkiga"-Reyting
-Videoning sifati: BDRip 720p
Video format: MKV
Video: AVC, (1280x720) 1 758 Kbps, 23,976 fps, 2 398 Kbps
Audio: MP3 / 44.1Hz stereo 2.0ch / 320 kbps / O'zbek tilida
Audio 2: AC-3 / 48Hz stereo 5.1ch / 384 Kbps / Rus tilida-

Media Info

D:\HD\Avatar (Extended Cut).mkv
General
Unique ID : 228395889943926265343988286054621407194 (0xABD372C7D6BAD2628861BE8426CA67DA)
Complete name : D:\HD\Àâàòàð (Extended Cut).mkv
Format : Matroska
Format version : Version 4 / Version 2
File size : 3.85 GiB
Duration : 2h 58mn
Overall bit rate mode : Variable
Overall bit rate : 3 093 Kbps
Movie name : BDRip by MaxVeLL [NoLimits-Team.Ru]
Encoded date : UTC 2013-12-28 20:04:58
Writing application : mkvmerge v6.2.0 ('Promised Land') built on Apr 28 2013 12:22:01
Writing library : libebml v1.3.0 + libmatroska v1.4.0
Attachment : Yes / Yes / Yes
Video #1
ID : 1
Format : AVC
Format/Info : Advanced Video Codec
Format profile : High@L4.1
Format settings, CABAC : Yes
Format settings, ReFrames : 3 frames
Codec ID : V_MPEG4/ISO/AVC
Duration : 2h 58mn
Bit rate mode : Variable
Bit rate : 2 398 Kbps
Maximum bit rate : 17.5 Mbps
Width : 1 280 pixels
Height : 720 pixels
Display aspect ratio : 16:9
Frame rate : 23.976 fps
Color space : YUV
Chroma subsampling : 4:2:0
Bit depth : 8 bits
Scan type : Progressive
Bits/(Pixel*Frame) : 0.109
Stream size : 2.90 GiB (75%)
Writing library : x264 core 108 r1788 c764e29
Encoding settings : cabac=1 / ref=3 / deblock=1:0:0 / analyse=0x3:0x113 / me=hex / subme=7 / psy=1 / psy_rd=1.00:0.00 / mixed_ref=1 / me_range=16 / chroma_me=1 / trellis=1 / 8x8dct=1 / cqm=0 / deadzone=21,11 / fast_pskip=1 / chroma_qp_offset=-2 / threads=3 / sliced_threads=0 / slices=4 / nr=0 / decimate=1 / interlaced=0 / constrained_intra=0 / bframes=3 / b_pyramid=1 / b_adapt=1 / b_bias=0 / direct=1 / weightb=1 / open_gop=0 / weightp=0 / keyint=24 / keyint_min=1 / scenecut=40 / intra_refresh=0 / rc_lookahead=24 / rc=abr / mbtree=1 / bitrate=2398 / ratetol=1.0 / qcomp=0.60 / qpmin=0 / qpmax=51 / qpstep=4 / vbv_maxrate=17500 / vbv_bufsize=14500 / ip_ratio=1.10 / aq=1:1.00 / nal_hrd=vbr
Language : English
Default : Yes
Forced : No
Audio #2
ID : 2
Format : AC-3
Format/Info : Audio Coding 3
Mode extension : CM (complete main)
Format settings, Endianness : Big
Codec ID : A_AC3
Duration : 2h 58mn
Bit rate mode : Constant
Bit rate : 384 Kbps
Channel(s) : 6 channels
Channel positions : Front: L C R, Side: L R, LFE
Sampling rate : 48.0 KHz
Bit depth : 16 bits
Compression mode : Lossy
Stream size : 489 MiB (12%)
Title : Rustilida, to`liq dublyaj
Language : Russian
Default : Yes
Forced : No
Audio #3
ID : 3
Format : MPEG Audio
Format version : Version 1
Format profile : Layer 3
Mode : Joint stereo
Codec ID : A_MPEG/L3
Codec ID/Hint : MP3
Duration : 2h 58mn
Bit rate mode : Constant
Bit rate : 320 Kbps
Channel(s) : 2 channels
Sampling rate : 44.1 KHz
Compression mode : Lossy
Stream size : 408 MiB (10%)
Title : O`zbek tilida
Writing library : LAME3.98.2
Language : Uzbek
Default : No
Forced : No
Text #4
ID : 4
Format : VobSub
Muxing mode : zlib
Codec ID : S_VOBSUB
Codec ID/Info : The same subtitle format used on DVDs
Title : Forced Styled
Language : Russian
Default : No
Forced : No
Text #5
ID : 5
Format : ASS
Codec ID : S_TEXT/ASS
Codec ID/Info : Advanced Sub Station Alpha
Compression mode : Lossless
Title : Full Styled
Language : Russian
Default : No
Forced : No
Text #6
ID : 6
Format : ASS
Codec ID : S_TEXT/ASS
Codec ID/Info : Advanced Sub Station Alpha
Compression mode : Lossless
Title : Forced Styled
Language : English
Default : No
Forced : No
Text #7
ID : 7
Format : ASS
Codec ID : S_TEXT/ASS
Codec ID/Info : Advanced Sub Station Alpha
Compression mode : Lossless
Title : Full Styled
Language : English
Default : No
Forced : No



So‘ngi marta tahrirlandi: rameo1988 (2018-12-23 17:26), Jami tahrirlangan 2 marta
Profil ShX

rameo1988 ®

Jins:
Yigit
Staj:
1 oy 9 kun
Xabarlar:
50

Qayerdan: Tashkent

Taqiq:

XATO KAMCHILIKLA u4un oldindan UZUR

Mavzu yaratish 21-Dek-2018 18:45 (12 daqiqa o‘tgach)

Iqitibos

Profil ShX

N.U.R.I.K.B.E.K

Jins:
Yigit
Staj:
1 yil 2 oy
Xabarlar:
365

Qayerdan: Jizzax. Paxtakor

Taqiq:

rameo1988, qaysi kanal tarjimasi

Mavzu yaratish 23-Dek-2018 15:16 (1 kun 20 soat o‘tgach)

Iqitibos

Profil ShX
Xabarlarni ko‘rsatish:    

Hozirgi vaqt: 23-Yan 01:41

Vaqtlar farqi: UTC + 5



Siz mavzu yaratishingiz mumkin emas
Siz xabarlarga javob qaytarishingiz mumkin emas
Siz o‘z xabarlaringizni tahrirlashingiz mumkin emas
Siz o‘z xabarlaringizni o‘chirishingiz mumkin emas
Siz so‘rovlarda ovoz berishingiz mumkin emas
Siz xabalarga fayllarni biriktirishingiz mumkin emas
Siz fayllarni ko‘chirishingiz mumkin emas