˂
˃
Tarqatmalar statistikasi
Yoʻq
 
     
 
 

Striker ®

Jins:
Yigit
Staj:
1 yil 2 oy
Xabarlar:
37
Taqiq:


Avaz Oxun - 7-dan 70-gacha nomli konsert dasturi 2017


Umumiy ma'lumotlarChiqqan yili: 2017
Davlat: O'zbekiston
Janr: Kulguli,konsert
Davomiyligi: 02:46:02Rollarda:Avaz Oxun, O'tkir Siddiqov, G'anisher Abdullayev, Diyorbek Faxriyev, Zokir OchildiyevTAVSIF:O'zbek xalqi uchun taniqli qiziqchi bo'lishga ulgurgan Avaz Oxunning Istiqlol san'at saroyida 1,2,3,4,5 - noyabr kunlari bergan navbatdagi 7-dan 70-gacha nomli konsert dasturini tomosha qilishga taklif etamiz. Konsertni taniqli boshlovchi O'tkir Siddiqov olib boradi. Dastur mehmoni G'anisher Abdullayev, Diyorbek Faxriyev va Zokir Ochildiyevlar.
Sifat: HDRip
Format: MP4
Video: | AVC | 1280x720 | 25fps | 1334 kbps |
Audio: | AAC | 44100Hz stereo | 125kbps |

MediaInfo:

General
Complete name : D:\DOWNLOADS\Avaz Oxun - 7-dan 70-gacha nomli konsert dasturi 2017.MP4
Format : MPEG-4
Format profile : Base Media
Codec ID : isom (isom/iso2/avc1/mp41)
File size : 1.70 GiB
Duration : 2 h 46 min
Overall bit rate : 1 466 kb/s
Writing application : Lavf57.79.100
Video
ID : 1
Format : AVC
Format/Info : Advanced Video Codec
Format profile : Main@L3.1
Format settings : CABAC / 3 Ref Frames
Format settings, CABAC : Yes
Format settings, ReFrames : 3 frames
Codec ID : avc1
Codec ID/Info : Advanced Video Coding
Duration : 2 h 46 min
Bit rate : 1 334 kb/s
Width : 1 280 pixels
Height : 720 pixels
Display aspect ratio : 16:9
Frame rate mode : Constant
Frame rate : 25.000 FPS
Color space : YUV
Chroma subsampling : 4:2:0
Bit depth : 8 bits
Scan type : Progressive
Bits/(Pixel*Frame) : 0.058
Stream size : 1.55 GiB (91%)
Color range : Limited
Color primaries : BT.709
Transfer characteristics : BT.709
Matrix coefficients : BT.709
Audio
ID : 2
Format : AAC
Format/Info : Advanced Audio Codec
Format profile : LC
Codec ID : mp4a-40-2
Duration : 2 h 46 min
Bit rate mode : Constant
Bit rate : 126 kb/s
Channel(s) : 2 channels
Channel positions : Front: L R
Sampling rate : 44.1 kHz
Frame rate : 43.066 FPS (1024 SPF)
Compression mode : Lossy
Stream size : 149 MiB (9%)
Default : Yes
Alternate group : 1
SCREENSHOTS:
Profil ShX

Toirbek

Jins:
Ko‘rsatilmagan
Staj:
10 oy 19 kun
Xabarlar:
8
Taqiq:

релиз куйгандан кейин таркатинде

Mavzu yaratish 11-Yan-2018 13:58 (4 kun o‘tgach)

Iqitibos

Profil ShX
Xabarlarni ko‘rsatish:    

Hozirgi vaqt: 15-Noy 11:38

Vaqtlar farqi: UTC + 5



Siz mavzu yaratishingiz mumkin emas
Siz xabarlarga javob qaytarishingiz mumkin emas
Siz o‘z xabarlaringizni tahrirlashingiz mumkin emas
Siz o‘z xabarlaringizni o‘chirishingiz mumkin emas
Siz so‘rovlarda ovoz berishingiz mumkin emas
Siz xabalarga fayllarni biriktirishingiz mumkin emas
Siz fayllarni ko‘chirishingiz mumkin emas