˂
˃
Tarqatmalar statistikasi
Yoʻq
 
     
 
 

MRLG ®

Jins:
Yigit
Staj:
1 yil 3 oy
Xabarlar:
526
Taqiq:

-Avaz Oxun — 7-dan 70-gacha nomli konsert dasturi- FILM HAQIDA MA'LUMOT
Chiqqan yili: 2017
Davlat: O`zbekison
Janri: Komediya
Davomiyligi: 02:46:02
Tarjima: Tarjima shart emas-Rejissiyor: Avaz Oxun
Rollarda
Avaz Oxun, O'tkir Siddiqov, G'anisher Abdullayev, Diyorbek Faxriyev, Zokir Ochildiyev-Tavsif
O'zbek xalqi uchun taniqli qiziqchi bo'lishga ulgurgan Avaz Oxunning Istiqlol san'at saroyida 1,2,3,4,5 - noyabr kunlari bergan navbatdagi 7-dan 70-gacha nomli konsert dasturini tomosha qilishga taklif etamiz. Konsertni taniqli boshlovchi O'tkir Siddiqov olib boradi. Dastur mehmoni G'anisher Abdullayev, Diyorbek Faxriyev va Zokir Ochildiyevlar.-Qo'shimcha ma'lumotlar-Sifat: HDRip
Format: MP4
Video: | AVC | 854x480 | 25fps | 703kbps |
Audio #1: | AAC | 44100Hz stereo | 126kbps |-

MI

General
Complete name                  : D:\Кино\QIZIQCHI 2013\Avaz Oxun konsertlari\Avaz Oxun - 7-dan 70-gacha nomli konsert dasturi 2017.mp4
Format                         : MPEG-4
Format profile                 : Base Media
Codec ID                       : isom (isom/iso2/avc1/mp41)
File size                      : 991 MiB
Duration                       : 2 h 46 min
Overall bit rate               : 835 kb/s
Writing application            : Lavf57.2.100
Video
ID                             : 1
Format                         : AVC
Format/Info                    : Advanced Video Codec
Format profile                 : Main@L3
Format settings                : CABAC / 3 Ref Frames
Format settings, CABAC         : Yes
Format settings, ReFrames      : 3 frames
Codec ID                       : avc1
Codec ID/Info                  : Advanced Video Coding
Duration                       : 2 h 46 min
Bit rate                       : 703 kb/s
Width                          : 854 pixels
Height                         : 480 pixels
Display aspect ratio           : 16:9
Frame rate mode                : Constant
Frame rate                     : 25.000 FPS
Color space                    : YUV
Chroma subsampling             : 4:2:0
Bit depth                      : 8 bits
Scan type                      : Progressive
Bits/(Pixel*Frame)             : 0.069
Stream size                    : 835 MiB (84%)
Color range                    : Limited
Color primaries                : BT.709
Transfer characteristics       : BT.709
Matrix coefficients            : BT.709
Audio
ID                             : 2
Format                         : AAC
Format/Info                    : Advanced Audio Codec
Format profile                 : LC
Codec ID                       : mp4a-40-2
Duration                       : 2 h 46 min
Bit rate mode                  : Constant
Bit rate                       : 126 kb/s
Channel(s)                     : 2 channels
Channel positions              : Front: L R
Sampling rate                  : 44.1 kHz
Frame rate                     : 43.066 FPS (1024 SPF)
Compression mode               : Lossy
Stream size                    : 149 MiB (15%)
Default                        : Yes
Alternate group                : 1

Miniatyura

SKRINSHOTLAR
Profil ShX

rovshan

Jins:
Ko‘rsatilmagan
Staj:
11 oy 3 kun
Xabarlar:
1
Taqiq:

tezkor kochirish

Mavzu yaratish 08-Yan-2018 17:44 (2 kun 4 soat o‘tgach)

Iqitibos

Profil ShX
Xabarlarni ko‘rsatish:    

Hozirgi vaqt: 11-Dek 21:02

Vaqtlar farqi: UTC + 5



Siz mavzu yaratishingiz mumkin emas
Siz xabarlarga javob qaytarishingiz mumkin emas
Siz o‘z xabarlaringizni tahrirlashingiz mumkin emas
Siz o‘z xabarlaringizni o‘chirishingiz mumkin emas
Siz so‘rovlarda ovoz berishingiz mumkin emas
Siz xabalarga fayllarni biriktirishingiz mumkin emas
Siz fayllarni ko‘chirishingiz mumkin emas