Tarqatmalar statistikasi
Ko‘chiraman: [ 1 ]
 
     
 
 

Vampire_1987 ®

Jins:
Ko‘rsatilmagan
Staj:
10 oy 28 kun
Xabarlar:
98
Taqiq:

----Ayris / Айрис / Iris /A-I-RI-SEU---- Chiqqan yili: 2009
Davlat: Koreya
Janr: jangari, triller, romantika
Davomiyligi: 20х ~ 00:58:58
Tarjima: Dublyaj (Professional) (UzB+Kor)
Subtitr: Rus
OST: 2x CD --Rejissior: Kim Kyu Txe, Yan Yun Xo--Rollarda: Lee Byung Hun / Kim Tae Hee/ Jung Joon Ho / Kim Seung Woo / Kim So Yeon, T.O.P (Big Bang) / Hyun Jyu Ni / Yoo Min / Kim Young Chul / Yoon Je Moon / Yoon Joo Sang va Boshqalar--Kino haqida: NSS - секретная правительственная организация Республики Корея, основная деятельность которой связана с обеспечением безопасности государства ввиду давних напряжённых отношений с КНДР. Один неверный шаг спецслужб и хрупкий мир может рухнуть в любой момент.
Ким Хён Чжун, новоиспеченный агент NSS, получает одиночный приказ - устранить одного из северокорейских политических лидеров, который, по данным разведки, препятствует объединению Корейского полуострова. Хён Чжун выполняет задание, но при отступлении получает ранение. Теперь он становится мишенью не только спецслужб из Северной Кореи, но и наёмного убийцы из NSS.
Предательство со стороны своей родины, на верность которой он присягал... Лучший друг, готовый пустить ему пулю в лоб...Смерть любимой женщины... Целая череда поворотных моментов толкают Хён Чжуна на отчаянный шаг: он вступает в ряды северокорейской террористической группы боевиков, возглавляемой мощной международной организацией АЙРИС.--Kino Haqida Qoshimcha: Съёмки сериала проходили в Южной Кореи, Японии, США, Китае и Венгрии.
Бюджет дорамы составил более 20 млн. долл.
Фильм вдохновил Ким Хён Чжуна на написание сценария "АЙРИС".
Планируются съёмки 2-ого сезона "IRIS 2". Однако исполнитель главной роли, актёр Ли Бён Хон, будучи занятым в других проектах, официально отказался сниматься в сиквеле.
20-ти серийная дорама "Афина: Богиня войны / Athena: Goddess of War" -спин-офф (ответвление сюжета) "АЙРИС".
"АЙРИС" входит в список самых рейтинговых дорам. Каждый из 20-ти эпизодов занял 1-ое место в национальном рейтинге трансляций, обеспечив средний показатель в 33,1% зрительской аудитории, т.е. каждый 3-ий телезритель Южной Кореи посмотрел эту дораму.
В связи с оглушительным успехом, на основе сериала был смонтирован полнометражный фильм .--Sifat: HDTVRip-AVC
Format: MKV
Video kodek: H.26x
Audio kodek: AC3
Video: MPEG4 Video (H264) 1280x720 29.97fps |~3 385 Kbps
Audio#1: Dolby AC3 48000Hz stereo 384kbps (Uzb)
Audio#1: Dolby AC3 48000Hz stereo 384kbps (Kor)-----

MI

General
Unique ID : 243313784691877461126467690293350051694 (0xB70C87C71DD6AFB3B5CC82DB165F2F6E)
Format : Matroska
Format version : Version 4 / Version 2
File size : 1.85 GiB
Duration : 1h 2mn
Overall bit rate : 4 237 Kbps
Encoded date : UTC 2015-01-18 00:09:41
Writing application : mkvmerge v7.4.0 ('Circles') 64bit built on Dec 12 2014 12:19:56
Writing library : libebml v1.3.0 + libmatroska v1.4.1
Video
ID : 2
Format : AVC
Format/Info : Advanced Video Codec
Format profile : High@L4.0
Format settings, CABAC : Yes
Format settings, ReFrames : 8 frames
Codec ID : V_MPEG4/ISO/AVC
Duration : 1h 2mn
Bit rate : 3 385 Kbps
Width : 1 280 pixels
Height : 720 pixels
Display aspect ratio : 16:9
Frame rate mode : Constant
Frame rate : 29.970 fps
Color space : YUV
Chroma subsampling : 4:2:0
Bit depth : 8 bits
Scan type : Progressive
Bits/(Pixel*Frame) : 0.123
Stream size : 1.48 GiB (80%)
Writing library : x264 core 110 r1804 e89c4cf
Encoding settings : cabac=1 / ref=8 / deblock=1:0:0 / analyse=0x3:0x133 / me=umh / subme=9 / psy=1 / psy_rd=1.00:0.00 / mixed_ref=1 / me_range=16 / chroma_me=1 / trellis=2 / 8x8dct=1 / cqm=0 / deadzone=21,11 / fast_pskip=1 / chroma_qp_offset=-2 / threads=18 / sliced_threads=0 / nr=0 / decimate=1 / interlaced=0 / constrained_intra=0 / bframes=3 / b_pyramid=2 / b_adapt=2 / b_bias=0 / direct=3 / weightb=1 / open_gop=0 / weightp=2 / keyint=250 / keyint_min=25 / scenecut=40 / intra_refresh=0 / rc_lookahead=60 / rc=crf / mbtree=1 / crf=21.0 / qcomp=0.60 / qpmin=10 / qpmax=51 / qpstep=4 / ip_ratio=1.40 / aq=1:1.00
Default : Yes
Forced : No
Audio #1
ID : 1
Format : AC-3
Format/Info : Audio Coding 3
Mode extension : CM (complete main)
Format settings, Endianness : Big
Codec ID : A_AC3
Duration : 1h 2mn
Bit rate mode : Constant
Bit rate : 384 Kbps
Channel(s) : 2 channels
Channel positions : Front: L R
Sampling rate : 48.0 KHz
Bit depth : 16 bits
Compression mode : Lossy
Stream size : 172 MiB (9%)
Title : DUB_[_-Vampire_1987-_]
Language : Uzbek
Default : No
Forced : No
Audio #2
ID : 3
Format : AC-3
Format/Info : Audio Coding 3
Mode extension : CM (complete main)
Format settings, Endianness : Big
Codec ID : A_AC3
Duration : 1h 2mn
Bit rate mode : Constant
Bit rate : 384 Kbps
Channel(s) : 2 channels
Channel positions : Front: L R
Sampling rate : 48.0 KHz
Bit depth : 16 bits
Compression mode : Lossy
Stream size : 172 MiB (9%)
Title : [Litsenziya] Orginal
Language : kar
Default : Yes
Forced : No


So‘ngi marta tahrirlandi: Vampire_1987 (2017-10-09 13:00), Jami tahrirlangan 4 marta
Profil ShX

Vampire_1987 ®

Jins:
Ko‘rsatilmagan
Staj:
10 oy 28 kun
Xabarlar:
98
Taqiq:

Oforum Kamchiliklari Ertaga Dovom Etiriladi!

Mavzu yaratish 25-Avg-2017 23:42 (1 daqiqa o‘tgach)

Iqitibos

Profil ShX

Frozen

Jins:
Yigit
Staj:
11 oy 4 kun
Xabarlar:
58

Qayerdan: Toshkent, Navoi

Taqiq:

Ooooooooooooo, oldinroq qayerda edingiz e, yaqinda platni saytdan kuchirgandim

Mavzu yaratish 25-Avg-2017 23:43 (53 soniya o‘tgach)

Iqitibos

Profil ShX

Frozen

Jins:
Yigit
Staj:
11 oy 4 kun
Xabarlar:
58

Qayerdan: Toshkent, Navoi

Taqiq:

Vampire_1987, Hamma yozuvlarni o`zbek tiliga tarjima qiling va lotin alifbosida yozib chiqing

Mavzu yaratish 25-Avg-2017 23:46 (3 daqiqa o‘tgach)

Iqitibos

Profil ShX

ganster07

Jins:
Yigit
Staj:
10 oy 29 kun
Xabarlar:
21
Taqiq:

Vampire_1987, raxmat Ayris 2 xam bormi toliq

Mavzu yaratish 25-Avg-2017 23:47 (32 soniya o‘tgach)

Iqitibos

Profil ShX

Frozen

Jins:
Yigit
Staj:
11 oy 4 kun
Xabarlar:
58

Qayerdan: Toshkent, Navoi

Taqiq:

Vampire_1987, Agar Ayris 2 bolsa uni ham qoysangiz zor ish bolardi, anchadan beri qidirib yuripman

Mavzu yaratish 25-Avg-2017 23:52 (5 daqiqa o‘tgach)

Iqitibos

Profil ShX

Frozen

Jins:
Yigit
Staj:
11 oy 4 kun
Xabarlar:
58

Qayerdan: Toshkent, Navoi

Taqiq:

Vampire_1987, Kino haqida bilan Kino haqida qo`shimchani ham uzbek tiliga tarjima qiling

Mavzu yaratish 26-Avg-2017 11:17 (11 soat o‘tgach)

Iqitibos

Profil ShX

Umidbek Karimov

Jins:
Ko‘rsatilmagan
Staj:
4 oy 10 kun
Xabarlar:
4
Taqiq:

serialni ko'chirib bo'mayapti

Mavzu yaratish 11-Apr-2018 14:12 (7 oy 16 kun o‘tgach)

Iqitibos

Profil ShX

MRLG

Jins:
Yigit
Staj:
11 oy 6 kun
Xabarlar:
379
Taqiq:

2371serialni ko'chirib bo'mayapti
To'liq manba yo'q: 5 oy 3 kun. Mana shuncha muddatdan beri ushbu reliz tarqatilmagan. umid ham qilmasak bo'laveradi.

Mavzu yaratish 11-Apr-2018 14:27 (15 daqiqa o‘tgach)

Iqitibos

Profil ShX

UmarShoh

Jins:
Yigit
Staj:
4 oy 17 kun
Xabarlar:
330
Taqiq:

xaxaxaxaxa

Mavzu yaratish 11-Apr-2018 14:36 (8 daqiqa o‘tgach)

Iqitibos

Profil ShX

Umidbek Karimov

Jins:
Ko‘rsatilmagan
Staj:
4 oy 10 kun
Xabarlar:
4
Taqiq:

Manda Alltor.me Saytida 70 % yuklandi ataq skors juda past

Mavzu yaratish 16-Apr-2018 19:56 (5 kun o‘tgach)

Iqitibos

Profil ShX

UmarShoh

Jins:
Yigit
Staj:
4 oy 17 kun
Xabarlar:
330
Taqiq:

Vampire_1987, oka tarqatishga berib qo'ying !

Mavzu yaratish 14-May-2018 10:12 (27 kun o‘tgach)

Iqitibos

Profil ShX
Xabarlarni ko‘rsatish:    

Hozirgi vaqt: 23-Iyul 03:17

Vaqtlar farqi: UTC + 5



Siz mavzu yaratishingiz mumkin emas
Siz xabarlarga javob qaytarishingiz mumkin emas
Siz o‘z xabarlaringizni tahrirlashingiz mumkin emas
Siz o‘z xabarlaringizni o‘chirishingiz mumkin emas
Siz so‘rovlarda ovoz berishingiz mumkin emas
Siz xabalarga fayllarni biriktirishingiz mumkin emas
Siz fayllarni ko‘chirishingiz mumkin emas