˂
˃
Tarqatmalar statistikasi
Ko‘chirmoqdaman: [ 2 ]
Ko‘chirib bo‘ldim: [ 22 ]
 
     
 
 

N.U.R.I.K.B.E.K ®

Jins:
Yigit
Staj:
1 yil 1 oy
Xabarlar:
349

Qayerdan: Jizzax. Paxtakor

Taqiq:

-Azamat 7 O'g'lon | Великолепная Cемерка | The Magnificent Seven
--Chiqqan yili: 2016
Davlat: AQSH
Janr: Jangari, Sarguzasht, Tarixiy.
Davomiyligi: 02:12:50
Tarjima: Professional (dublyaj qilingan)
Tarjima #1: Professional (Kinoteatr) O'zbek Tilida
Tarjima #2: Professional (litsenziya) Rus Tilida--Rejissyor: Antuan Fukuv.--Rollarda: Denzel Vashington, Kris Prett, Iten Xouk, Vinsent D'Onofrio, Li Byon-Xon, Manuel Rulfo, Martin Sensmeyer, Xeyli Bennett, Piter Sarsgaard, Lyuk Grayms.--Tavsif: Yetti dovyurak o'g'lonlar kichik bir shahar himoyasi uchun turishadi, aholisi qaroqchilar guruhi tomonidan bosib olingan.--Videoning sifati: HDRip-HEVC 1080p
Video format: MKV--Video: HVC1 1920x804 23.976fp 975 Kbps
Audio: MP3 48000Hz stereo 192kbps O'zbek Tili
Audio 2: MP3 48000Hz stereo 128kbps Rus Tili--

Media Info

General
Format : Matroska
Format version : Version 4 / Version 2
File size : 1.23 GiB
Duration : 2h 12mn
Overall bit rate : 1 321 Kbps
Video
ID : 1
Format : HEVC
Format/Info : High Efficiency Video Coding
Format profile : Main@L4@Main
Codec ID : V_MPEGH/ISO/HEVC
Duration : 2h 12mn
Bit rate : 975 Kbps
Width : 1 920 pixels
Height : 804 pixels
Display aspect ratio : 2.40:1
Frame rate mode : Constant
Frame rate : 23.976 fps
Color space : YUV
Chroma subsampling : 4:2:0
Bit depth : 8 bits
Bits/(Pixel*Frame) : 0.026
Stream size : 926 MiB (74%)
Language : English
Default : Yes
Forced : No
Audio #1
ID : 2
Format : MPEG Audio
Format version : Version 1
Format profile : Layer 3
Mode : Joint stereo
Codec ID : A_MPEG/L3
Codec ID/Hint : MP3
Duration : 2h 12mn
Bit rate mode : Constant
Bit rate : 192 Kbps
Channel(s) : 2 channels
Sampling rate : 48.0 KHz
Compression mode : Lossy
Stream size : 182 MiB (15%)
Title : O'zbek Tili
Default : Yes
Forced : No
Audio #2
ID : 3
Format : MPEG Audio
Format version : Version 1
Format profile : Layer 3
Mode : Joint stereo
Codec ID : A_MPEG/L3
Codec ID/Hint : MP3
Duration : 2h 12mn
Bit rate mode : Constant
Bit rate : 128 Kbps
Channel(s) : 2 channels
Sampling rate : 48.0 KHz
Compression mode : Lossy
Stream size : 122 MiB (10%)
Title : Rus Tili
Writing library : LAME3.99.5
Language : Russian
Default : No
Forced : No
LAVHALAR


So‘ngi marta tahrirlandi: N.U.R.I.K.B.E.K (2018-11-01 17:48), Jami tahrirlangan 2 marta
Profil ShX

Evropa

Jins:
Ko‘rsatilmagan
Staj:
8 oy 13 kun
Xabarlar:
11
Taqiq:

Ajoyib Yettilik
Janr: Western
Tavsif: русский

Mavzu yaratish 01-Noy-2018 09:05 (7 soat o‘tgach)

Iqitibos

Profil ShX

Lock

Jins:
Yigit
Staj:
2 oy 8 kun
Xabarlar:
12

Qayerdan: Namangan

Taqiq:

Daxshat!!!!!

Mavzu yaratish 01-Noy-2018 10:42 (1 soat 36 daqiqa o‘tgach)

Iqitibos

Profil ShX

N.U.R.I.K.B.E.K ®

Jins:
Yigit
Staj:
1 yil 1 oy
Xabarlar:
349

Qayerdan: Jizzax. Paxtakor

Taqiq:

6656
Janr: Western
western tarjimasi nima bo'larkan

Mavzu yaratish 01-Noy-2018 17:28 (6 soat o‘tgach)

Iqitibos

Profil ShX
Xabarlarni ko‘rsatish:    

Hozirgi vaqt: 17-Dek 23:41

Vaqtlar farqi: UTC + 5



Siz mavzu yaratishingiz mumkin emas
Siz xabarlarga javob qaytarishingiz mumkin emas
Siz o‘z xabarlaringizni tahrirlashingiz mumkin emas
Siz o‘z xabarlaringizni o‘chirishingiz mumkin emas
Siz so‘rovlarda ovoz berishingiz mumkin emas
Siz xabalarga fayllarni biriktirishingiz mumkin emas
Siz fayllarni ko‘chirishingiz mumkin emas