Tarqatmalar statistikasi
Ko‘chirmoqdaman: [ 2 ]
Ko‘chirib bo‘ldim: [ 10 ]
 
     
 
 

MRLG ®

Jins:
Yigit
Staj:
11 oy 5 kun
Xabarlar:
379
Taqiq:

Bashoratchi / Пророк / Next -««Kelajakni ko'rishingiz mumkin bo'lsa, uni saqlashingiz mumkin»»- -
Chiqqan yili: 2007
Davlat: AQSH
Janr: fantastika, jangari, triller
Davomiyligi: 01:36:10
Tarjima: Rus va O'zbek tillarida dublyaj qilingan- Rejissiyor: Li Tamaxori / Lee Tamahori- Rollarda:
-Nikolas Keydj (Cris Johnson), Djulianna Mur (Callie Ferris), Djessika Bil (Liz Cooper), Tomas Krechman (Mr. Smith), Tori Kittlz (Cavanaugh), Xose Suniga (Security Chief Roybal), Djim Biver (NSA Director Wisdom), Djeyson Batler Xarner (Jeff Baines), Maykl Trukko (Kendall), Enso Chilenti (Mr. Jones), Letitsiya Daniel (Miss Brown), Nikolas Pedjon (Mr. Green)- Tavsif:
Kris Jonsonda hayotini zaharlaydigan sir bor: u yaqin kelajakni bashorat qilishi mumkin. Davlat va tibbiyot markazlarining chinakam qobiliyatini ochib berishga bo'lgan cheksiz e'tiboridan charchagan Kris yashirinishga qaror qiladi.-Dunyodagi premyerasi: 2007 - yil 25 - aprel
КиноПоиск: 7.131 (69 548)
IMDb: 6.20 (132 906)- Sifat: HDRip
Format: AVI
Video: XviD, 720x304 (2.35:1), 1711 kbps, 23,976 fps, 0,326 bpp
Audio №1: AC3 / 5.1 / 48 kHz / 448 kbps / | Rus | | To'liq dublyaj |
Audio №2: MP3 / 2.0 / 48 kHz / 128 kbps / | Uzb | | NTT dublyaji |-

Media Info

General
Complete name                            : Bashoratchi (2007).avi
Format                                   : AVI
Format/Info                              : Audio Video Interleave
File size                                : 1.55 GiB
Duration                                 : 1 h 36 min
Overall bit rate                         : 2 302 kb/s
Writing application                      : VirtualDubMod 1.5.10.3 | www.virtualdub-fr.org || (build 2550/release)
Writing library                          : VirtualDubMod build 2550/release
Video
ID                                       : 0
Format                                   : MPEG-4 Visual
Format profile                           : Advanced Simple@L5
Format settings, BVOP                    : 1
Format settings, QPel                    : No
Format settings, GMC                     : No warppoints
Format settings, Matrix                  : Custom
Codec ID                                 : XVID
Codec ID/Hint                            : XviD
Duration                                 : 1 h 36 min
Bit rate                                 : 1 712 kb/s
Width                                    : 720 pixels
Height                                   : 304 pixels
Display aspect ratio                     : 2.35:1
Frame rate                               : 23.976 (23976/1000) FPS
Color space                              : YUV
Chroma subsampling                       : 4:2:0
Bit depth                                : 8 bits
Scan type                                : Progressive
Compression mode                         : Lossy
Bits/(Pixel*Frame)                       : 0.326
Stream size                              : 1.15 GiB (74%)
Writing library                          : XviD 1.2.1 (UTC 2008-12-04)
Audio #1
ID                                       : 1
Format                                   : AC-3
Format/Info                              : Audio Coding 3
Mode extension                           : CM (complete main)
Format settings, Endianness              : Big
Codec ID                                 : 2000
Duration                                 : 1 h 36 min
Bit rate mode                            : Constant
Bit rate                                 : 448 kb/s
Channel(s)                               : 6 channels
Channel positions                        : Front: L C R, Side: L R, LFE
Sampling rate                            : 48.0 kHz
Frame rate                               : 31.250 FPS (1536 spf)
Compression mode                         : Lossy
Stream size                              : 308 MiB (19%)
Alignment                                : Split accross interleaves
Interleave, duration                     : 42  ms (1.00 video frame)
Interleave, preload duration             : 500  ms
Audio #2
ID                                       : 2
Format                                   : MPEG Audio
Format version                           : Version 1
Format profile                           : Layer 3
Codec ID                                 : 55
Codec ID/Hint                            : MP3
Duration                                 : 1 h 36 min
Bit rate mode                            : Constant
Bit rate                                 : 128 kb/s
Channel(s)                               : 2 channels
Sampling rate                            : 48.0 kHz
Compression mode                         : Lossy
Stream size                              : 88.1 MiB (6%)
Alignment                                : Aligned on interleaves
Interleave, duration                     : 42  ms (1.00 video frame)
Interleave, preload duration             : 504  ms
Writing library                          : LAME3.99r
Encoding settings                        : -m s -V 4 -q 0 -lowpass 17 -b 128

Miniatyura

SKRINSHOTLAR
- © Template by MRLG
Profil ShX

MRLG ®

Jins:
Yigit
Staj:
11 oy 5 kun
Xabarlar:
379
Taqiq:

Tezlik juda zo'r deb ayta olmayman, lekin tarqatishda turaman. Film yaxshi. Ko'rishga arziydi.

Mavzu yaratish 31-Yan-2018 10:07 (1 daqiqa o‘tgach)

Iqitibos

Profil ShX

vuelta

Jins:
Yigit
Staj:
11 oy 6 kun
Xabarlar:
284
Taqiq:

rahmatfilm uchun

Mavzu yaratish 31-Yan-2018 10:22 (14 daqiqa o‘tgach)

Iqitibos

Profil ShX

Vampire_1987

Jins:
Ko‘rsatilmagan
Staj:
10 oy 28 kun
Xabarlar:
98
Taqiq:

MRLG, aa

Mavzu yaratish 31-Yan-2018 11:04 (42 daqiqa o‘tgach)

Iqitibos

Profil ShX

azizbek

Jins:
Yigit
Staj:
8 oy 5 kun
Xabarlar:
94

Qayerdan: Surxondaryo

Taqiq:

Yaxshi kino. Ko'rishga arziydi, ayniqsa o'zbek tilida.

Mavzu yaratish 31-Yan-2018 15:51 (4 soat o‘tgach)

Iqitibos

Profil ShX

vuelta

Jins:
Yigit
Staj:
11 oy 6 kun
Xabarlar:
284
Taqiq:

tez skachat buldi

Mavzu yaratish 01-Fev-2018 17:01 (1 kun 1 soat o‘tgach)

Iqitibos

Profil ShX

Frozen

Jins:
Yigit
Staj:
11 oy 3 kun
Xabarlar:
58

Qayerdan: Toshkent, Navoi

Taqiq:

Zo'r kino. Rahmat

Mavzu yaratish 01-Fev-2018 18:14 (1 soat 13 daqiqa o‘tgach)

Iqitibos

Profil ShX
Xabarlarni ko‘rsatish:    

Hozirgi vaqt: 22-Iyul 09:58

Vaqtlar farqi: UTC + 5



Siz mavzu yaratishingiz mumkin emas
Siz xabarlarga javob qaytarishingiz mumkin emas
Siz o‘z xabarlaringizni tahrirlashingiz mumkin emas
Siz o‘z xabarlaringizni o‘chirishingiz mumkin emas
Siz so‘rovlarda ovoz berishingiz mumkin emas
Siz xabalarga fayllarni biriktirishingiz mumkin emas
Siz fayllarni ko‘chirishingiz mumkin emas