˂
˃
Tarqatmalar statistikasi
Ko‘chirmoqdaman: [ 9 ]
 
     
 
 

Unofficial ®

Jins:
Yigit
Staj:
8 oy 21 kun
Xabarlar:
446

Qayerdan: Nukus

Taqiq:

-Betman Afsonaning qaytishi | Темный рыцарь: Возрождение легенды | The Dark Knight Rises- -Chiqqan yili: 2012
Davlat: AQSH, Buyuk Britaniya
Janr: Fantastika, jangari, triller, drama, kriminal
Davomiyligi: 02:30:43
Tarjima: Professional (Dublyaj qilingan) O'zbek tilida
Tarjima: Professional (Dublyaj qilingan) Rus tilida-Subtitrlar: Yo'q-Rejissyor: Kristofer Nolan-Rollarda: Kristian Beyl, Tom Xardi, En Xetuey, Jozef Gordon-Levit, Marion Kotiyar, Garry Oldman, Morgan Friman, Maykl Keyn, Meytyu Modayn, Ben Mendelson-Tavsif: Sakkiz yil burun Batman kechasi qochib qochoqqadir g'oyib bo'ldi. Prokuror Xarvi Dentning o'limiga aybdor bo'lganidan keyin u hamma narsani tashladi. Komissar Gordon bilan birgalikda ular hamma uchun yaxshiroq bo'lishga qaror qilishdi..
Shunga qaramay, maskali kishi Benning yangi dushmanning paydo bo'lishi yanada xavfli bo'lib qolgandi. U Gotemni dahshatli bir harakatni boshdan kechirishga va bu Bryus Uaynni majburan quvg'indan ozod etishga majbur qiladi. Biroq, sirli o'tmish bilan "Woman - Cat" deb atalgan aqlli o'g'rining kelishi bilan hamma narsa o'zgaradi.-Sifat: TVRip
Format: .avi-Video: AVC, 1 254 kb/s, 1046x576, 25.000 FPS
Audio: MP3, 128 kb/s, 2channels, 48.0 kHz Uzbek
Audio #2: MP3, 128 kb/s, 2channels, 48.0 kHz Russian-

Media Info

General
ID                             : 25 (0x19)
Format                         : MPEG-TS
File size                      : 1.68 GiB
Duration                       : 2 h 30 min
Overall bit rate mode          : Variable
Overall bit rate               : 1 592 kb/s
FileExtension_Invalid          : ts m2t m2s m4t m4s tmf ts tp trp ty
Video
ID                             : 210 (0xD2)
Menu ID                        : 10 (0xA)
Format                         : AVC
Format/Info                    : Advanced Video Codec
Format profile                 : Main@L3
Format settings, CABAC         : Yes
Format settings, ReFrames      : 4 frames
Format settings, GOP           : M=4, N=24
Codec ID                       : 27
Duration                       : 2 h 30 min
Bit rate                       : 1 254 kb/s
Maximum bit rate               : 2 000 kb/s
Width                          : 1046 pixels
Height                         : 576 pixels
Display aspect ratio           : 16:9
Frame rate                     : 25.000 FPS
Standard                       : PAL
Color space                    : YUV
Chroma subsampling             : 4:2:0
Bit depth                      : 8 bits
Scan type                      : Interlaced
Scan type, store method        : Separated fields
Scan order                     : Top Field First
Bits/(Pixel*Frame)             : 0.121
Stream size                    : 1.32 GiB (79%)
Color range                    : Limited
Color primaries                : BT.601 PAL
Transfer characteristics       : BT.470 System B, BT.470 System G
Matrix coefficients            : BT.601
Audio #1
ID                             : 310 (0x136)
Menu ID                        : 10 (0xA)
Format                         : MPEG Audio
Format version                 : Version 1
Format profile                 : Layer 2
Codec ID                       : 4
Duration                       : 2 h 30 min
Bit rate mode                  : Constant
Bit rate                       : 128 kb/s
Channel(s)                     : 2 channels
Sampling rate                  : 48.0 kHz
Compression mode               : Lossy
Delay relative to video        : -1 s 366 ms
Stream size                    : 138 MiB (8%)
Language                       : Uzbek
Audio #2
ID                             : 4310 (0x10D6)
Menu ID                        : 10 (0xA)
Format                         : MPEG Audio
Format version                 : Version 1
Format profile                 : Layer 2
Codec ID                       : 3
Duration                       : 2 h 30 min
Bit rate mode                  : Constant
Bit rate                       : 128 kb/s
Channel(s)                     : 2 channels
Sampling rate                  : 48.0 kHz
Compression mode               : Lossy
Delay relative to video        : -1 s 454 ms
Stream size                    : 138 MiB (8%)
Language                       : Russian
Menu
ID                             : 110 (0x6E)
Menu ID                        : 10 (0xA)
Duration                       : 2 h 30 min
List                           : 210 (0xD2) (AVC) / 310 (0x136) (MPEG Audio, Uzbek) / 4310 (0x10D6) (MPEG Audio, Russian)
Language                       :  / Uzbek / Russian
Maximum bit rate               : 2256400
Profil ShX

Downloader

Jins:
Ko‘rsatilmagan
Staj:
1 oy 7 kun
Xabarlar:
8
Taqiq:

Unofficial, HDTVRip bo'lmaydimi?

Mavzu yaratish 22-Noy-2018 21:15 (20 soat o‘tgach)

Iqitibos

Profil ShX

Unofficial ®

Jins:
Yigit
Staj:
8 oy 21 kun
Xabarlar:
446

Qayerdan: Nukus

Taqiq:

6837Unofficial, HDTVRip bo'lmaydimi?
meni televizorim eski, zapis qilayotganim, tuner ulab zapis qilayabman, kinoteatr HD Sifatli uzatmasa kerak menimcha, agar uzatishganda zapis qilgan bolardim. Mediabayda HD si bormikan? kinoteatrni?

Mavzu yaratish 22-Noy-2018 21:30 (14 daqiqa o‘tgach)

Iqitibos

Profil ShX
Xabarlarni ko‘rsatish:    

Hozirgi vaqt: 17-Dek 11:19

Vaqtlar farqi: UTC + 5



Siz mavzu yaratishingiz mumkin emas
Siz xabarlarga javob qaytarishingiz mumkin emas
Siz o‘z xabarlaringizni tahrirlashingiz mumkin emas
Siz o‘z xabarlaringizni o‘chirishingiz mumkin emas
Siz so‘rovlarda ovoz berishingiz mumkin emas
Siz xabalarga fayllarni biriktirishingiz mumkin emas
Siz fayllarni ko‘chirishingiz mumkin emas