˂
˃
Tarqatmalar statistikasi
Ko‘chirmoqdaman: [ 1 ]
Ko‘chirib bo‘ldim: [ 15 ]
 
     
 
 

N.U.R.I.K.B.E.K ®

Jins:
Yigit
Staj:
1 yil 1 oy
Xabarlar:
344

Qayerdan: Jizzax. Paxtakor

Taqiq:

--Betmen Supermenga Qarshi | Бэтмен против Супермена: На заре справедливости | Batman v Superman: Dawn of Justice-- --Chiqqan yili: 2016
Davlat: AQSH
Janr: Fantastik, Jangari, Hayoliy, Sargurasht.
Davomiyligi: 02:31:38
Tarjima: Professional (dublyaj qilingan)
Tarjima #2: Professional (Kinoteatr) O'zbek Tilida
Tarjima #3: Professional (litsenziya) Rus Tilida--Rejissyor: Zak Snayder--Rollarda: Genri Kevill, Ben Afflek, Gal Gadot, Jeyson Momoa, Emi Adams, Jessi Ayzenberg, Ezra Miller, Jena Meloun, Dayan Leyn, Xolli Xanter, Jeffri Din Morgan, Devid Keyt.--Tavsif: Xudoga o'xshagan super qahramonning harakatlari nazoratsiz bo'lib qolishi qo'rqib, Gotham shahri bugungi kunda eng hurmatli Metropolis qutqaruvchisini chaqiradi, qolgan qismi esa qahramonga qanchalik muhtoj ekanini hal qiladi. Batman va Supermen bir-biri bilan urush holatida bo'lganida, insoniyatni eng katta xavf ostida qoldiradigan yangi tahdid paydo bo'ladi.--Videoning sifati: HDRip
Video format: MKV
Video: Xvid 720x304 23.976fps
Audio: MP3 48000Hz stereo 192kbps O'zbek Tili
Audio 2: Dolby AC3 48000Hz 6ch 384kbps Rus Tili-
-

Media Info

General
Format : Matroska
Format version : Version 4 / Version 2
File size : 2.25 GiB
Duration : 2h 31mn
Overall bit rate : 2 120 Kbps
Video
ID : 1
Format : MPEG-4 Visual
Format profile : Advanced Simple@L5
Format settings, BVOP : 2
Format settings, QPel : No
Format settings, GMC : No warppoints
Format settings, Matrix : Default (MPEG)
Codec ID : V_MS/VFW/FOURCC / XVID
Codec ID/Hint : XviD
Duration : 2h 31mn
Bit rate : 1 502 Kbps
Width : 720 pixels
Height : 304 pixels
Display aspect ratio : 2.35:1
Frame rate mode : Constant
Frame rate : 23.976 fps
Color space : YUV
Chroma subsampling : 4:2:0
Bit depth : 8 bits
Scan type : Progressive
Compression mode : Lossy
Bits/(Pixel*Frame) : 0.286
Stream size : 1.59 GiB (71%)
Writing library : XviD 1.2.1 (UTC 2008-12-04)
Default : Yes
Forced : No
Audio #1
ID : 2
Format : MPEG Audio
Format version : Version 1
Format profile : Layer 3
Mode : Joint stereo
Codec ID : A_MPEG/L3
Codec ID/Hint : MP3
Duration : 2h 31mn
Bit rate mode : Constant
Bit rate : 192 Kbps
Channel(s) : 2 channels
Sampling rate : 48.0 KHz
Compression mode : Lossy
Stream size : 208 MiB (9%)
Title : O'zbek Tili
Default : Yes
Forced : No
Audio #2
ID : 3
Format : AC-3
Format/Info : Audio Coding 3
Mode extension : CM (complete main)
Format settings, Endianness : Big
Codec ID : A_AC3
Duration : 2h 31mn
Bit rate mode : Constant
Bit rate : 384 Kbps
Channel(s) : 6 channels
Channel positions : Front: L C R, Side: L R, LFE
Sampling rate : 48.0 KHz
Compression mode : Lossy
Stream size : 416 MiB (18%)
Title : Rus Tili
Default : No
Forced : No
LAVHALAR


So‘ngi marta tahrirlandi: N.U.R.I.K.B.E.K (2018-11-05 19:07), Jami tahrirlangan 2 marta
Profil ShX

yunusovjamshid

Jins:
Yigit
Staj:
1 oy 15 kun
Xabarlar:
30

Qayerdan: Toshkent

Taqiq:

Снайдер - скайдер буб копди

Mavzu yaratish 05-Noy-2018 17:53 (1 soat 20 daqiqa o‘tgach)

Iqitibos

Profil ShX

N.U.R.I.K.B.E.K ®

Jins:
Yigit
Staj:
1 yil 1 oy
Xabarlar:
344

Qayerdan: Jizzax. Paxtakor

Taqiq:

yunusovjamshid, aa menda shunaqa privichka bupqopti hafa bumislar

Mavzu yaratish 05-Noy-2018 17:57 (4 daqiqa o‘tgach)

Iqitibos

Profil ShX

vuelta

Jins:
Yigit
Staj:
1 yil 4 oy
Xabarlar:
300
Taqiq:

betmen baqaloq ekan)

Mavzu yaratish 05-Noy-2018 18:57 (59 daqiqa o‘tgach)

Iqitibos

Profil ShX

N.U.R.I.K.B.E.K ®

Jins:
Yigit
Staj:
1 yil 1 oy
Xabarlar:
344

Qayerdan: Jizzax. Paxtakor

Taqiq:

vuelta, bahodirlar bo'tqasidan ko'pro yevorgandurda

Mavzu yaratish 05-Noy-2018 19:07 (9 daqiqa o‘tgach)

Iqitibos

Profil ShX
Xabarlarni ko‘rsatish:    

Hozirgi vaqt: 17-Dek 10:58

Vaqtlar farqi: UTC + 5



Siz mavzu yaratishingiz mumkin emas
Siz xabarlarga javob qaytarishingiz mumkin emas
Siz o‘z xabarlaringizni tahrirlashingiz mumkin emas
Siz o‘z xabarlaringizni o‘chirishingiz mumkin emas
Siz so‘rovlarda ovoz berishingiz mumkin emas
Siz xabalarga fayllarni biriktirishingiz mumkin emas
Siz fayllarni ko‘chirishingiz mumkin emas