˂
˃
Tarqatmalar statistikasi
Ko‘chiraman: [ 3 ]
Ko‘chirmoqdaman: [ 6 ]
Ko‘chirib bo‘ldim: [ 48 ]
 
     
 
 

Dj.Max ®

Jins:
Yigit
Staj:
5 oy 23 kun
Xabarlar:
23

Qayerdan: Farg'ona

Taqiq:

Bilol / Билал / Bilal: A New Breed of Hero-- Chiqqan yili: (2015) 2018
Davlat: BAA
Janr: Multfilm, Jangari, Tarihiy, Diniy, Oilaviy
Davomiyligi: 01:49:28
Tarjima: [MY5 TV] telekanali dublyaji--Ssenariy: Aleks Kronemer, Maykl Vulf, Huram al Allavi, Yasin Kamol
Bastakor: Atli O'rvarsson
Rejissyor: Huram al Allavi, Ayman Jamal
Prodyusser: Ayman Jamal, Arif Jiloni, Gen Lim--Rollarni ovozlashtirganlar: Adevale Akinnuye-Agbadje, Ien Maksheyn, Chayna Enn Makkleyn, Tomas Yen Nikolas, Maykl Gross, Sintiya Key Makuilyams, Djeykob Latimor, Fred Tataskor, Djon Karri, Mik Vingert--Tavsif: Multfilm badiiy ijod mahsuli bo'lsada, uning mohiyati avlodlar xotirasiga muhrlangan hayotiy voqealarga asoslanadi. U bashariyat tarihidagi qullik va tenglik kurashining qadimiy ramzlaridan biridir.
Ming yillar avval buyuk jangchi bo'lishni orzu qilgan jasur bolani, makkor dushmanlar o'g'irlab ketishgan, qulga aytlantirishgan edi. U dunyoni o'zgartirishga, insonlarning hammasi teng huquqli ekanligiga, razolat, zulm insonga hos odat emasligiga odamlarni ishontirishga qodir edi.-- --Sifat: WEBRip (1080)
Format: MP4
Video: 1904x800 23.976fps 2400kbps
Audio: Uzbek / AAC / 2.0 / 48 kHz / 128 kbps / [MY5 TV]
Audio: Ingliz / AAC / 2.0 / 48 kHz / 128 kbps / [Original]
Hajmi: 1.84 GB--

Media Info

General
Unique ID                      : 199761879135042942235812398362090289502 (0x9648BD0CD994B2FB8D99C99BE80C395E)
Complete name                  : Bilol [Dj.Max].mp4
Format                         : Matroska
Format version                 : Version 4 / Version 2
File size                      : 1.84 GiB
Duration                       : 1 h 49 min
Overall bit rate               : 2 403 kb/s
Encoded date                   : UTC 2018-10-14 06:50:08
Writing application            : mkvmerge v27.0.0 ('Metropolis') 64-bit
Writing library                : libebml v1.3.6 + libmatroska v1.4.9
FileExtension_Invalid          : mkv mk3d mka mks
Video
ID                             : 1
Format                         : AVC
Format/Info                    : Advanced Video Codec
Format profile                 : High@L4.1
Format settings                : CABAC / 4 Ref Frames
Format settings, CABAC         : Yes
Format settings, ReFrames      : 4 frames
Codec ID                       : V_MPEG4/ISO/AVC
Duration                       : 1 h 49 min
Bit rate                       : 2 150 kb/s
Width                          : 1 904 pixels
Height                         : 800 pixels
Display aspect ratio           : 2.40:1
Frame rate mode                : Constant
Frame rate                     : 23.976 (24000/1001) FPS
Color space                    : YUV
Chroma subsampling             : 4:2:0
Bit depth                      : 8 bits
Scan type                      : Progressive
Bits/(Pixel*Frame)             : 0.059
Stream size                    : 1.64 GiB (89%)
Title                          : Bilol [Dj.Max]
Writing library                : x264 core 152
Encoding settings              : cabac=1 / ref=4 / deblock=1:-1:-1 / analyse=0x3:0x133 / me=umh / subme=9 / psy=1 / psy_rd=1.00:0.15 / mixed_ref=1 / me_range=24 / chroma_me=1 / trellis=2 / 8x8dct=1 / cqm=0 / deadzone=21,11 / fast_pskip=0 / chroma_qp_offset=-3 / threads=12 / lookahead_threads=1 / sliced_threads=0 / nr=0 / decimate=1 / interlaced=0 / bluray_compat=0 / constrained_intra=0 / bframes=3 / b_pyramid=2 / b_adapt=2 / b_bias=0 / direct=3 / weightb=1 / open_gop=0 / weightp=2 / keyint=250 / keyint_min=23 / scenecut=40 / intra_refresh=0 / rc_lookahead=60 / rc=2pass / mbtree=1 / bitrate=2150 / ratetol=1.0 / qcomp=0.60 / qpmin=0 / qpmax=69 / qpstep=4 / cplxblur=20.0 / qblur=0.5 / vbv_maxrate=31250 / vbv_bufsize=31250 / nal_hrd=none / filler=0 / ip_ratio=1.40 / aq=1:1.00
Default                        : Yes
Forced                         : No
Audio #1
ID                             : 2
Format                         : AAC
Format/Info                    : Advanced Audio Codec
Format profile                 : LC
Codec ID                       : A_AAC-2
Duration                       : 1 h 49 min
Bit rate                       : 125 kb/s
Channel(s)                     : 2 channels
Channel positions              : Front: L R
Sampling rate                  : 48.0 kHz
Frame rate                     : 46.875 FPS (1024 SPF)
Compression mode               : Lossy
Stream size                    : 98.0 MiB (5%)
Title                          : Bilol (O'zbek) [Dj.Max]
Language                       : Uzbek
Default                        : Yes
Forced                         : No
Audio #2
ID                             : 3
Format                         : AAC
Format/Info                    : Advanced Audio Codec
Format profile                 : LC
Codec ID                       : A_AAC-2
Duration                       : 1 h 49 min
Bit rate                       : 125 kb/s
Channel(s)                     : 2 channels
Channel positions              : Front: L R
Sampling rate                  : 48.0 kHz
Frame rate                     : 46.875 FPS (1024 SPF)
Compression mode               : Lossy
Stream size                    : 98.0 MiB (5%)
Title                          : Bilol (Ingliz) [Dj.Max]
Language                       : English
Default                        : No
Forced                         : No
-- © Template by Dj.Max
Profil ShX

AxeL

Jins:
Yigit
Staj:
8 oy 24 kun
Xabarlar:
610

Qayerdan: Gronland, Norway

Taqiq:

video o'yinga o'xshab ketarkan, relizer gazni bosing, charchamang, ijoddan to'xtamang, omad

Mavzu yaratish 14-Okt-2018 20:50 (2 soat 10 daqiqa o‘tgach)

Iqitibos

Profil ShX

SobirR

Jins:
Yigit
Staj:
8 oy 22 kun
Xabarlar:
222

Qayerdan: Navoiy. Uchquduq

Taqiq:

6440video o'yinga o'xshab ketarkan
Animatsiya uchun pulni tejashgandirda

Mavzu yaratish 15-Okt-2018 09:51 (13 soat o‘tgach)

Iqitibos

Profil ShX

Dj.Max ®

Jins:
Yigit
Staj:
5 oy 23 kun
Xabarlar:
23

Qayerdan: Farg'ona

Taqiq:

6447
6440video o'yinga o'xshab ketarkan
Animatsiya uchun pulni tejashgandirda
Multfilmga 30 mln. dollor sarflangan!

Mavzu yaratish 15-Okt-2018 10:33 (42 daqiqa o‘tgach)

Iqitibos

Profil ShX

MRLG

Jins:
Yigit
Staj:
1 yil 3 oy
Xabarlar:
526
Taqiq:

Mavzu yaratish 15-Okt-2018 10:43 (10 daqiqa o‘tgach)

Iqitibos

Profil ShX

SobirR

Jins:
Yigit
Staj:
8 oy 22 kun
Xabarlar:
222

Qayerdan: Navoiy. Uchquduq

Taqiq:

6448
6447
6440video o'yinga o'xshab ketarkan
Animatsiya uchun pulni tejashgandirda
Multfilmga 30 mln. dollor sarflangan!

Список самых дорогих мультфильмов

https://ru.wikipedia.org/wiki/%D0%A1%D0%BF%D0%B8%D1...1%81%D0%BE%D0%BA

Mavzu yaratish 15-Okt-2018 22:30 (11 soat o‘tgach)

Iqitibos

Profil ShX
Xabarlarni ko‘rsatish:    

Hozirgi vaqt: 11-Dek 21:22

Vaqtlar farqi: UTC + 5



Siz mavzu yaratishingiz mumkin emas
Siz xabarlarga javob qaytarishingiz mumkin emas
Siz o‘z xabarlaringizni tahrirlashingiz mumkin emas
Siz o‘z xabarlaringizni o‘chirishingiz mumkin emas
Siz so‘rovlarda ovoz berishingiz mumkin emas
Siz xabalarga fayllarni biriktirishingiz mumkin emas
Siz fayllarni ko‘chirishingiz mumkin emas