˂
˃
Tarqatmalar statistikasi
Ko‘chiraman: [ 1 ]
Ko‘chirib bo‘ldim: [ 1 ]
 
     
 
 

Abdulloh ®

Jins:
Ko‘rsatilmagan
Staj:
1 yil 1 oy
Xabarlar:
41
Taqiq:

Birinchi Qasoskor 3 | Captain America:Civil war
Davlat: AQSH, Germaniya
Janr: Fantastika, jangari, sarguzasht
Chiqqan yili: 2016
Davomiyligi: 02:28:13

Tarjima: Professional (dublyaj qilingan)
Tarjima haqida qo'shimcha ma'lumot: MY 5
Original ovoz yo'lagi: Ruscha
-Rejissiyor: Entoni Russo, Jo Russo-
Rollarda: Kris Evans, Robert Dauni, Skarlett Yoxansson, Sebastyan Sten, Entoni Maki, Don Chidl, Djeremi Renner, Chedvik Bouzman, Pol Bettani, Elizabet Olsen-Описание:
Kapitan Amerika boshchiligidagi Avengers xalqaro miqyosdagi halokatli voqea ishtirokchilari. Ushbu hodisalar hukumatni "Qahramonlarni ro'yxatga olish aktini" joriy etish orqali ularni maxsus qobiliyatga ega bo'lgan barcha harakatlarni tartibga solishni boshlash haqida o'ylashga majbur qiladi va ularni BMTga topshirishga majbur qiladi.
Ushbu shartnomada fuqarolik huquqlarining buzilishi va u ishonadigan hamma narsaga tupurgan Stiv Rogers, yangi tuzumga qarshi ochiqchasiga qarshi chiqib, o'z fikrini qo'llab-quvvatlaydigan bir guruh qahramonlarni boshqaradi. O'z navbatida, Toni Stark yangi shartnoma mazmunini ko'rib, uni qo'llab-quvvatlaydigan qahramonlarning boshi bo'ladi. Bularning barchasi Avengersning ajralmas qismiga va tomonlar o'rtasidagi urushga olib keladi.-Videoning sifati: HDRip
Формат видео: MKV-Video: Xvid 720x304 23.976fps
Audio: Audio 1: MP3 44100Hz stereo 320kbps [uzb]
Audio 2: Dolby AC3 48000Hz stereo 448kbps [rus]

MediaInfo

General
Unique ID : 185773854450775775086877964214905397763 (0x8BC2BE2FD0A1B658A258EBD22BE8E203)
Complete name : D:\Internet\Kino UZ tracker\A-Studio\Capitan America.Ciril.War.mkv
Format : Matroska
Format version : Version 4 / Version 2
File size : 2.38 GiB
Duration : 2 h 28 min
Overall bit rate : 2 294 kb/s
Encoded date : UTC 2017-12-27 18:05:26
Writing application : mkvmerge v7.5.0 ('Glass Culture') 64bit built on Jan 4 2015 16:48:44
Writing library : libebml v1.3.1 + libmatroska v1.4.2
Video
ID : 2
Format : MPEG-4 Visual
Format profile : Advanced Simple@L5
Format settings : BVOP2 / Custom Matrix
Format settings, BVOP : 2
Format settings, QPel : No
Format settings, GMC : No warppoints
Format settings, Matrix : Custom
Codec ID : V_MS/VFW/FOURCC / XVID
Codec ID/Hint : XviD
Duration : 2 h 27 min
Bit rate : 1 531 kb/s
Width : 720 pixels
Height : 304 pixels
Display aspect ratio : 2.35:1
Frame rate mode : Constant
Frame rate : 23.976 (24000/1001) FPS
Color space : YUV
Chroma subsampling : 4:2:0
Bit depth : 8 bits
Scan type : Progressive
Compression mode : Lossy
Bits/(Pixel*Frame) : 0.292
Stream size : 1.58 GiB (67%)
Writing library : XviD 1.2.1 (UTC 2008-12-04)
Default : Yes
Forced : No
Audio #1
ID : 1
Format : MPEG Audio
Format version : Version 1
Format profile : Layer 3
Format settings : Joint stereo
Codec ID : A_MPEG/L3
Codec ID/Hint : MP3
Duration : 2 h 28 min
Bit rate mode : Constant
Bit rate : 320 kb/s
Channel(s) : 2 channels
Sampling rate : 44.1 kHz
Frame rate : 38.281 FPS (1152 SPF)
Compression mode : Lossy
Stream size : 339 MiB (14%)
Language : Uzbek
Default : Yes
Forced : No
Audio #2
ID : 3
Format : AC-3
Format/Info : Audio Coding 3
Codec ID : A_AC3
Duration : 2 h 27 min
Bit rate mode : Constant
Bit rate : 448 kb/s
Channel(s) : 2 channels
Channel positions : Front: L R
Sampling rate : 48.0 kHz
Frame rate : 31.250 FPS (1536 SPF)
Bit depth : 16 bits
Compression mode : Lossy
Stream size : 473 MiB (19%)
Service kind : Complete Main
Default : No
Forced : No

Lavhalar

Profil ShX

ZAFAR-studio

Jins:
Yigit
Staj:
4 oy 22 kun
Xabarlar:
25

Qayerdan: Хоразм вилояти, Урганч шаҳри, "12-сонли Маъшал" маҳалласидан

Taqiq:

Ассалому алайкум, кучириб олганлар таркатишда амалий ёрдам беришларингизни илтимос киламан.

Mavzu yaratish 05-Iyul-2018 16:59 (6 oy 8 kun o‘tgach)

Iqitibos

Profil ShX

N.U.R.I.K.B.E.K

Jins:
Yigit
Staj:
1 yil
Xabarlar:
304

Qayerdan: Jizzax. Paxtakor

Taqiq:

ZAFAR-studio, http://uztracker.me/topic-birinchiqasoskor_3_pervyiy_mstitel'_protivostoyanie_2016_aqsh_germaniya_fantastika_jangari_sarguzasht_tvrip-t=311.html

Mavzu yaratish 05-Iyul-2018 17:27 (27 daqiqa o‘tgach)

Iqitibos

Profil ShX
Xabarlarni ko‘rsatish:    

Hozirgi vaqt: 18-Noy 18:07

Vaqtlar farqi: UTC + 5



Siz mavzu yaratishingiz mumkin emas
Siz xabarlarga javob qaytarishingiz mumkin emas
Siz o‘z xabarlaringizni tahrirlashingiz mumkin emas
Siz o‘z xabarlaringizni o‘chirishingiz mumkin emas
Siz so‘rovlarda ovoz berishingiz mumkin emas
Siz xabalarga fayllarni biriktirishingiz mumkin emas
Siz fayllarni ko‘chirishingiz mumkin emas