˂
˃
Tarqatmalar statistikasi
Yoʻq
 
     
 
 

BestBoy ®

Jins:
Yigit
Staj:
1 yil 1 oy
Xabarlar:
63
Taqiq:

-Birinchi Qasoskor 3 | Первый мститель: Противостояние | Captain America: Civil War- Davlat: AQSH, Germaniya
Janr: Fantastika, jangari, sarguzasht
Chiqqan yili: 2016
Davomiyligi: 02:21:42-Tarjima: Professional (dublyaj qilingan) Favvora Studio
Original ovoz yo'lagi: O'zbekcha-Rejissiyor: Entoni Russo, Jo Russo-Rollarda: Kris Evans, Robert Dauni, Skarlett Yoxansson, Sebastyan Sten, Entoni Maki, Don Chidl, Djeremi Renner, Chedvik Bouzman, Pol Bettani, Elizabet Olsen-Описание: Мстители под руководством Капитана Америки оказываются участниками разрушительного инцидента, имеющего международный масштаб. Эти события заставляют правительство задуматься над тем, чтобы начать регулировать действия всех людей с особыми способностями, введя «Акт о регистрации супергероев», вынуждая их подчиняться ООН.
Видя в этом договоре нарушение гражданских прав и плевок на всё, во что он верит, Стив Роджерс открыто восстаёт против нового режима, ведя за собой группу героев, поддерживающих его мнение. В свою очередь, Тони Старк видит смысл в новом договоре и становится во главе героев, поддерживающих его. Всё это приводит к неизбежному расколу Мстителей и войне между сторонами. Сражаясь друг с другом, Старк и Роджерс не знают о том, что таинственный Барон Земо уже строит свои собственные планы, воспользовавшись расколом величайших героев Земли.
-Videoning sifati: TVRip
Formati: MP4
-Video: MPEG4 Video (H264) 640x360 25fps 699kbps
Audio: AAC 44100Hz stereo 95kbps [O'zbekcha, MY5]

MediaInfo

General
Complete name : D:\Birinchi.Qasoskor.3.TVRip.mp4
Format : MPEG-4
Format profile : Base Media
Codec ID : isom
File size : 810 MiB
Duration : 2h 21mn
Overall bit rate mode : Variable
Overall bit rate : 799 Kbps
Recorded date : 2017-09-20T11:16:52.00853
Writing application : Lavf52.93.0
Video
ID : 1
Format : AVC
Format/Info : Advanced Video Codec
Format profile : Baseline@L3.0
Format settings, CABAC : No
Format settings, ReFrames : 1 frame
Codec ID : avc1
Codec ID/Info : Advanced Video Coding
Duration : 2h 21mn
Bit rate : 700 Kbps
Width : 640 pixels
Height : 360 pixels
Display aspect ratio : 16:9
Frame rate mode : Constant
Frame rate : 25.000 fps
Color space : YUV
Chroma subsampling : 4:2:0
Bit depth : 8 bits
Scan type : Progressive
Bits/(Pixel*Frame) : 0.122
Stream size : 708 MiB (87%)
Writing library : x264 core 112
Encoding settings : cabac=0 / ref=1 / deblock=1:0:0 / analyse=0x1:0x111 / me=hex / subme=7 / psy=1 / psy_rd=1.00:0.00 / mixed_ref=0 / me_range=16 / chroma_me=1 / trellis=1 / 8x8dct=0 / cqm=0 / deadzone=21,11 / fast_pskip=1 / chroma_qp_offset=-2 / threads=1 / sliced_threads=0 / nr=0 / decimate=1 / interlaced=0 / constrained_intra=0 / bframes=0 / weightp=0 / keyint=250 / keyint_min=25 / scenecut=40 / intra_refresh=0 / rc_lookahead=40 / rc=abr / mbtree=1 / bitrate=700 / ratetol=1.0 / qcomp=0.60 / qpmin=10 / qpmax=51 / qpstep=4 / ip_ratio=1.41 / aq=1:1.00
Audio
ID : 2
Format : AAC
Format/Info : Advanced Audio Codec
Format profile : LC
Codec ID : 40
Duration : 2h 21mn
Bit rate mode : Variable
Bit rate : 96.0 Kbps
Channel(s) : 2 channels
Channel positions : Front: L R
Sampling rate : 44.1 KHz
Compression mode : Lossy
Stream size : 97.3 MiB (12%)


So‘ngi marta tahrirlandi: BestBoy (2017-12-10 15:50), Jami tahrirlangan 1 marta
Profil ShX

Gr@nd

Jins:
Yigit
Staj:
1 yil 1 oy
Xabarlar:
158

Qayerdan: Jizzax Forish

Taqiq:

4-5 soatlarda HD farmatini qo'yaman 3 gb

Mavzu yaratish 10-Dek-2017 14:35 (40 daqiqa o‘tgach)

Iqitibos

Profil ShX

BestBoy ®

Jins:
Yigit
Staj:
1 yil 1 oy
Xabarlar:
63
Taqiq:

9454-5 soatlarda HD farmatini qo'yaman 3 gb
uff yanami, hech bomasa 2 gb qiling men ham razdachaga ohirgacha turaman

Mavzu yaratish 10-Dek-2017 15:53 (1 soat 17 daqiqa o‘tgach)

Iqitibos

Profil ShX

#Epic

Jins:
Yigit
Staj:
1 yil 2 oy
Xabarlar:
50

Qayerdan: Jizzax

Taqiq:

Timka razdachaga turasanmi ? ili skachat qilishdan foyda yuqmi ?

Mavzu yaratish 10-Dek-2017 20:03 (4 soat o‘tgach)

Iqitibos

Profil ShX

BestBoy ®

Jins:
Yigit
Staj:
1 yil 1 oy
Xabarlar:
63
Taqiq:

950Timka razdachaga turasanmi ? ili skachat qilishdan foyda yuqmi ?
dosi 10 k paynet qil keyn turaman)

Mavzu yaratish 10-Dek-2017 21:50 (1 soat 46 daqiqa o‘tgach)

Iqitibos

Profil ShX

vuelta

Jins:
Yigit
Staj:
1 yil 3 oy
Xabarlar:
298
Taqiq:

MY5 ni urniga yoki ustiga saytni imblemasini quysa buladi

Mavzu yaratish 10-Dek-2017 22:15 (25 daqiqa o‘tgach)

Iqitibos

Profil ShX

MRLG

Jins:
Yigit
Staj:
1 yil 3 oy
Xabarlar:
523
Taqiq:

BestBoy, film to'liq ko'chirilganmi? yoki to'liq emasmi?
Ba'zi saytlarda shu filmni to'liq bo'lmagan varianti chiqib ketibdi. Agar filmni siz boshidan ko'chirib olgan bo'lsangiz, ko'chirib olardim.

Mavzu yaratish 12-Dek-2017 12:08 (1 kun 13 soat o‘tgach)

Iqitibos

Profil ShX

BestBoy ®

Jins:
Yigit
Staj:
1 yil 1 oy
Xabarlar:
63
Taqiq:

MRLG, men zapis boshidan lekin ohidirda 2 minut 30 sek zapis yoq edi o'zim qoship qoydim ohiriga

Mavzu yaratish 12-Dek-2017 13:03 (55 daqiqa o‘tgach)

Iqitibos

Profil ShX
Xabarlarni ko‘rsatish:    

Hozirgi vaqt: 18-Noy 17:17

Vaqtlar farqi: UTC + 5



Siz mavzu yaratishingiz mumkin emas
Siz xabarlarga javob qaytarishingiz mumkin emas
Siz o‘z xabarlaringizni tahrirlashingiz mumkin emas
Siz o‘z xabarlaringizni o‘chirishingiz mumkin emas
Siz so‘rovlarda ovoz berishingiz mumkin emas
Siz xabalarga fayllarni biriktirishingiz mumkin emas
Siz fayllarni ko‘chirishingiz mumkin emas