˂
˃
Tarqatmalar statistikasi
Ko‘chirmoqdaman: [ 2 ]
Ko‘chirib bo‘ldim: [ 14 ]
 
     
 
 

yunusovjamshid ®

Jins:
Yigit
Staj:
1 oy 15 kun
Xabarlar:
30

Qayerdan: Toshkent

Taqiq:

--Born muqoyasasi | Идентификация Борна| The Bourne Identity
-- Chiqqan yili: 2002
Davlat:
Janr: Jangari, Detektiv, Triller
Davomiyligi: 01:58:17
Tarjima: Professional (dublyaj qilingan) (o`zbek tilida)
Subtitrlar: --Rejissyor: Dag Layman | Doug Liman--Rollarda: Mett Deymon, Franka Potente, Kris Kuper, Klayv Ouen, Brayan Koks, Adevale Aakinnuoye-Agbadje, Gabriel Mann, Uolton Goggins, Djosh Hemilton, Juliya Staylz va boshqalar--Tavsif: Italiya baliq ovlash kemasi jamoasi O'rta er dengizi suvidagi odam tanasini topadi. Uning ortida ikkita o'q jarohati va sonda shveytsariyalik bank bilan belgilangan mikfilm bor. Bu notanish odam o'ziga kelganidan so'ng, kim ekanligini va u bilan nima sodir bo'lganligini eslamaydi, biroq u bir nechta tillarda gaplasha oladi va boshqa g'ayrioddiy qobiliyatlarga ega. Tsyurixda ko'rsatilgan bank hisobidan pul olgach, u ismi Jeyson Born ekanligini biladi. Ammo bu uning haqiqiy nomimi yoki yo'qmi?-- Videoning sifati: BrRip 1080p
Video format:
Video: 1920x816, 23.976 fp/s, 1 835 kb/s
Audio 1: AAC, 44100Hz, stereo, 96.0 kbps |
Audio 2: AAC, 44100Hz, stereo, 128 kbps |
Audio 3: AAC, 48000Hz, stereo, 96.0 kbps |

Media Info

General
Unique ID : 195190500389672708548458650839302735364 (0x92D852AD3F3D7547A25258C44D230604)
Complete name : K:\Movie\Борн - квадрология\Идентификация Борна (2002) Uzb.Rus.Sub.Eng.BrRip.1080p.mkv
Format : Matroska
Format version : Version 4 / Version 2
File size : 1.79 GiB
Duration : 1 h 58 min
Overall bit rate : 2 157 kb/s
Encoded date : UTC 2018-11-22 18:54:14
Writing application : mkvmerge v11.0.0 ('Alive') 64bit
Writing library : libebml v1.3.4 + libmatroska v1.4.5
Video
ID : 1
Format : AVC
Format/Info : Advanced Video Codec
Format profile : High@L4
Format settings, CABAC : Yes
Format settings, RefFrames : 5 frames
Codec ID : V_MPEG4/ISO/AVC
Duration : 1 h 58 min
Bit rate : 1 835 kb/s
Width : 1 920 pixels
Height : 816 pixels
Display aspect ratio : 2.35:1
Frame rate mode : Constant
Frame rate : 23.976 (24000/1001) FPS
Color space : YUV
Chroma subsampling : 4:2:0
Bit depth : 8 bits
Scan type : Progressive
Bits/(Pixel*Frame) : 0.049
Stream size : 1.52 GiB (85%)
Writing library : x264 core 125 r2200 999b753
Encoding settings : cabac=1 / ref=5 / deblock=1:0:0 / analyse=0x3:0x133 / me=umh / subme=9 / psy=1 / psy_rd=1.00:0.00 / mixed_ref=1 / me_range=16 / chroma_me=1 / trellis=2 / 8x8dct=1 / cqm=0 / deadzone=21,11 / fast_pskip=1 / chroma_qp_offset=-2 / threads=12 / lookahead_threads=2 / sliced_threads=0 / nr=0 / decimate=1 / interlaced=0 / bluray_compat=0 / constrained_intra=0 / bframes=8 / b_pyramid=2 / b_adapt=2 / b_bias=0 / direct=3 / weightb=1 / open_gop=0 / weightp=2 / keyint=240 / keyint_min=23 / scenecut=40 / intra_refresh=0 / rc_lookahead=60 / rc=2pass / mbtree=1 / bitrate=1835 / ratetol=1.0 / qcomp=0.60 / qpmin=10 / qpmax=51 / qpstep=4 / cplxblur=20.0 / qblur=0.5 / ip_ratio=1.40 / aq=1:1.00
Default : Yes
Forced : No
Audio #1
ID : 2
Format : AAC
Format/Info : Advanced Audio Codec
Format profile : LC
Codec ID : A_AAC
Duration : 1 h 58 min
Bit rate : 96.0 kb/s
Channel(s) : 2 channels
Channel positions : Front: L R
Sampling rate : 44.1 kHz
Frame rate : 43.066 FPS (1024 SPF)
Compression mode : Lossy
Delay relative to video : -125 ms
Stream size : 81.3 MiB (4%)
Language : Uzbek
Default : Yes
Forced : Yes
Audio #2
ID : 3
Format : AAC
Format/Info : Advanced Audio Codec
Format profile : LC
Codec ID : A_AAC
Duration : 1 h 58 min
Bit rate : 128 kb/s
Channel(s) : 2 channels
Channel positions : Front: L R
Sampling rate : 44.1 kHz
Frame rate : 43.066 FPS (1024 SPF)
Compression mode : Lossy
Delay relative to video : -125 ms
Stream size : 109 MiB (6%)
Title : DUB
Language : Russian
Default : No
Forced : No
Audio #3
ID : 4
Format : AAC
Format/Info : Advanced Audio Codec
Format profile : LC
Codec ID : A_AAC
Duration : 1 h 58 min
Bit rate : 96.0 kb/s
Channel(s) : 2 channels
Channel positions : Front: L R
Sampling rate : 48.0 kHz
Frame rate : 46.875 FPS (1024 SPF)
Compression mode : Lossy
Delay relative to video : -125 ms
Stream size : 81.2 MiB (4%)
Title : original
Language : English
Default : No
Forced : No
Text
ID : 5
Format : UTF-8
Codec ID : S_TEXT/UTF8
Codec ID/Info : UTF-8 Plain Text
Duration : 1 h 51 min
Bit rate : 40 b/s
Count of elements : 1022
Stream size : 33.1 KiB (0%)
Title : eng
Default : No
Forced : No


So‘ngi marta tahrirlandi: yunusovjamshid (2018-11-22 23:02), Jami tahrirlangan 1 marta
Profil ShX

Unofficial

Jins:
Yigit
Staj:
8 oy 21 kun
Xabarlar:
446

Qayerdan: Nukus

Taqiq:

yunusovjamshid, hozir kinoteatrdan berayotgan qismimi bu?

Mavzu yaratish 22-Noy-2018 23:01 (9 daqiqa o‘tgach)

Iqitibos

Profil ShX

yunusovjamshid ®

Jins:
Yigit
Staj:
1 oy 15 kun
Xabarlar:
30

Qayerdan: Toshkent

Taqiq:

6840yunusovjamshid, hozir kinoteatrdan berayotgan qismimi bu?
билмадим тел курмиёмман, лекин качества ундан яхши буса керак, весиям енгил 1,79 гиг

Mavzu yaratish 22-Noy-2018 23:04 (2 daqiqa o‘tgach)

Iqitibos

Profil ShX

yunusovjamshid ®

Jins:
Yigit
Staj:
1 oy 15 kun
Xabarlar:
30

Qayerdan: Toshkent

Taqiq:

6840yunusovjamshid, hozir kinoteatrdan berayotgan qismimi bu?
у эмасакан, хозир бервотгани Jeyson Born -2016 yil,
тез кунларда бу сериясини хам релиз киламан

Mavzu yaratish 22-Noy-2018 23:07 (3 daqiqa o‘tgach)

Iqitibos

Profil ShX

yunusovjamshid ®

Jins:
Yigit
Staj:
1 oy 15 kun
Xabarlar:
30

Qayerdan: Toshkent

Taqiq:

эртага ишхонага борсам тезлик беришим яна купаяди

Mavzu yaratish 22-Noy-2018 23:10 (2 daqiqa o‘tgach)

Iqitibos

Profil ShX

Unofficial

Jins:
Yigit
Staj:
8 oy 21 kun
Xabarlar:
446

Qayerdan: Nukus

Taqiq:

6842
6840yunusovjamshid, hozir kinoteatrdan berayotgan qismimi bu?
у эмасакан, хозир бервотгани Jeyson Born -2016 yil,
тез кунларда бу сериясини хам релиз киламан
xa mayli, charchamang

Mavzu yaratish 22-Noy-2018 23:17 (6 daqiqa o‘tgach)

Iqitibos

Profil ShX
Xabarlarni ko‘rsatish:    

Hozirgi vaqt: 17-Dek 23:57

Vaqtlar farqi: UTC + 5



Siz mavzu yaratishingiz mumkin emas
Siz xabarlarga javob qaytarishingiz mumkin emas
Siz o‘z xabarlaringizni tahrirlashingiz mumkin emas
Siz o‘z xabarlaringizni o‘chirishingiz mumkin emas
Siz so‘rovlarda ovoz berishingiz mumkin emas
Siz xabalarga fayllarni biriktirishingiz mumkin emas
Siz fayllarni ko‘chirishingiz mumkin emas