˂
˃
Tarqatmalar statistikasi
Ko‘chirmoqdaman: [ 1 ]
Ko‘chirib bo‘ldim: [ 9 ]
 
     
 
 

yunusovjamshid ®

Jins:
Yigit
Staj:
1 oy 15 kun
Xabarlar:
30

Qayerdan: Toshkent

Taqiq:

--Born sharti | Ультиматум Борна | The Bourne Ultimatum-- Chiqqan yili: 2007
Davlat:
Janr: jangari, triller
Davomiyligi: 01:55:14
Tarjima: Professional (dublyaj qilingan)
Subtitrlar: Ingliz tilida--Rejissyor: Pol Gringras | Paul Greengrass--Rollarda: Matt Daymon, Julia Stiles, Devid Strathairn, Scott Glenn, Paddy Considine, Edgar Ramirez, Albert Finney, Joan Allen, Tom Gallop, Corey Jonson--Tavsif: U faqat g'oyib bo'lishni xohladi. Buning o'rniga, Born hozir unga nima qilganini odamlar tomonidan ovlanadi. U xotirasini va sevimli odamini yo'qotdi. Ammo u o'q-dorining yomg'iri yoki professional qotillarning yangi avlodi bilan cheklanmaydi. Uning yagona maqsadi bor: boshiga qaytib, uning kimligini bilish. Jeyson Bourne Moskvadan Parijga, Madrid va London orqali Tangier va Nyu -Yorkga o'tib, o'tmishdagi eng oxirgi jumboqlarni topishga harakat qilmoqda, hukumat xodimlari uni butun rasmini oxirigacha tiklashga xalaqit bermoqchi bo'lishadi.-- Videoning sifati: BrRip
Video format:
Video: 1920x800, 23.976 fp/s, 1 478 kb/s
Audio 1: AAC, 44100Hz, stereo, 79.6 kbps |
Audio 2: AAC, 44100Hz, stereo, 384 kbps |
Audio 3: AC3, 48000Hz, 6 ch, 384 kbps |

Media Info

General
Unique ID : 220549257341033142492331750802811993056 (0xA5EC3DECAB7F216883C324BF2D7F3BE0)
Complete name : D:\проче\кино\Ультиматум Борна.2007 BrRip.1080p.Uzb.Rus.Eng.mkv
Format : Matroska
Format version : Version 4 / Version 2
File size : 1.72 GiB
Duration : 1 h 55 min
Overall bit rate : 2 136 kb/s
Encoded date : UTC 2018-11-10 11:27:07
Writing application : mkvmerge v8.8.0 ('Wind at my back') 64bit
Writing library : libebml v1.3.3 + libmatroska v1.4.4
Video
ID : 1
Format : AVC
Format/Info : Advanced Video Codec
Format profile : High@L4
Format settings, CABAC : Yes
Format settings, ReFrames : 5 frames
Codec ID : V_MPEG4/ISO/AVC
Duration : 1 h 55 min
Bit rate : 1 478 kb/s
Width : 1 920 pixels
Height : 800 pixels
Display aspect ratio : 2.40:1
Frame rate mode : Constant
Frame rate : 23.976 (24000/1001) FPS
Color space : YUV
Chroma subsampling : 4:2:0
Bit depth : 8 bits
Scan type : Progressive
Bits/(Pixel*Frame) : 0.040
Stream size : 1.19 GiB (69%)
Writing library : x264 core 125 r2200 999b753
Encoding settings : cabac=1 / ref=5 / deblock=1:0:0 / analyse=0x3:0x133 / me=umh / subme=9 / psy=1 / psy_rd=1.00:0.00 / mixed_ref=1 / me_range=16 / chroma_me=1 / trellis=2 / 8x8dct=1 / cqm=0 / deadzone=21,11 / fast_pskip=1 / chroma_qp_offset=-2 / threads=12 / lookahead_threads=2 / sliced_threads=0 / nr=0 / decimate=1 / interlaced=0 / bluray_compat=0 / constrained_intra=0 / bframes=3 / b_pyramid=2 / b_adapt=2 / b_bias=0 / direct=3 / weightb=1 / open_gop=0 / weightp=2 / keyint=240 / keyint_min=23 / scenecut=40 / intra_refresh=0 / rc_lookahead=60 / rc=2pass / mbtree=1 / bitrate=1478 / ratetol=1.0 / qcomp=0.60 / qpmin=10 / qpmax=51 / qpstep=4 / cplxblur=20.0 / qblur=0.5 / ip_ratio=1.40 / aq=1:1.00
Default : Yes
Forced : No
Audio #1
ID : 2
Format : AAC
Format/Info : Advanced Audio Codec
Format profile : LC
Codec ID : A_AAC
Duration : 1 h 55 min
Bit rate : 79.6 kb/s
Channel(s) : 2 channels
Channel positions : Front: L R
Sampling rate : 44.1 kHz
Frame rate : 43.066 FPS (1024 spf)
Compression mode : Lossy
Delay relative to video : -83 ms
Stream size : 65.6 MiB (4%)
Title : dublyaj
Language : Uzbek
Default : Yes
Forced : No
Audio #2
ID : 3
Format : AAC
Format/Info : Advanced Audio Codec
Format profile : LC
Codec ID : A_AAC
Duration : 1 h 55 min
Bit rate : 128 kb/s
Channel(s) : 2 channels
Channel positions : Front: L R
Sampling rate : 44.1 kHz
Frame rate : 43.066 FPS (1024 spf)
Compression mode : Lossy
Delay relative to video : -83 ms
Stream size : 106 MiB (6%)
Title : DUB
Language : Russian
Default : No
Forced : No
Audio #3
ID : 4
Format : AC-3
Format/Info : Audio Coding 3
Format settings, Endianness : Big
Codec ID : A_AC3
Duration : 1 h 55 min
Bit rate mode : Constant
Bit rate : 448 kb/s
Channel(s) : 6 channels
Channel positions : Front: L C R, Side: L R, LFE
Sampling rate : 48.0 kHz
Frame rate : 31.250 FPS (1536 spf)
Bit depth : 16 bits
Compression mode : Lossy
Delay relative to video : -83 ms
Stream size : 369 MiB (21%)
Title : original
Language : English
Service kind : Complete Main
Default : No
Forced : No
Text
ID : 5
Format : UTF-8
Codec ID : S_TEXT/UTF8
Codec ID/Info : UTF-8 Plain Text
Duration : 1 h 45 min
Bit rate : 44 b/s
Count of elements : 1046
Stream size : 34.3 KiB (0%)
Language : English
Default : Yes
Forced : No
Profil ShX

Topik Sifatli Xorij filmlari (BDRip, BDRip-AVC, HD-AVC) forumidan HD, HD-AVC va yuqori sifatli Tarjima kinofilmlari ga ko‘chirildi
MRLG

Mavzu yaratish 10-Noy-2018 16:14 (1 soat 6 daqiqa o‘tgach)

Xabarlarni ko‘rsatish:    

Hozirgi vaqt: 18-Dek 01:02

Vaqtlar farqi: UTC + 5



Siz mavzu yaratishingiz mumkin emas
Siz xabarlarga javob qaytarishingiz mumkin emas
Siz o‘z xabarlaringizni tahrirlashingiz mumkin emas
Siz o‘z xabarlaringizni o‘chirishingiz mumkin emas
Siz so‘rovlarda ovoz berishingiz mumkin emas
Siz xabalarga fayllarni biriktirishingiz mumkin emas
Siz fayllarni ko‘chirishingiz mumkin emas