˂
˃
Tarqatmalar statistikasi
Yoʻq
 
     
 
 

Gr@nd ®

Jins:
Yigit
Staj:
1 yil 1 oy
Xabarlar:
158

Qayerdan: Jizzax Forish

Taqiq:

-Buyuk Devor | Великая стена / The Great Wall- -Davlat: Avstraliya, Gonkong, Kanada, Kitay, AQSH
Janr: Jangari, sarguzasht, trillеr, fantastika
Chiqqan yili: 2016
Davomiyligi: 01:43:04-Tarjima: Professional (dublyaj qilingan)O'zbek tilida-Rejissiyor: Chjan Imou-Rollarda: Mett Deymon, Uillеm Dеfo, Endi Lau, Eddi Pen, Chjan Xanyuy, Pеdro Paskal, Szin Tyan, Luxan, Kеnni Lin, Xuan Syuan-Trеylеr: https://mover.uz/watch/xAVLQk9m/-Описание: Buyuk devor osmon imperiyasini har qanday tahdidlardan himoya qilish maqsadida qurilgan, biroq uning himoyachilarining eng dovyuraklari bunday dushmanga duch kelmagan. Agar istilo to'xtamasa, dunyo vayron bo'ladi.-Videoning sifati: BDRip
Формат видео: MKV-Video: MPEG4 Video (H264) 1916x800 23.976fps 4 434 Kbps
Audio: Dolby AC3 48000Hz 6ch Rus
Audio: MP3 48000Hz 2ch 128kbps Uzb
-

MediaInfo

General
Unique ID : 250074668059117912168799861701491665821 (0xBC22A1104990380FA8785130CB79AB9D)
Format : Matroska
Format version : Version 4 / Version 2
File size : 3.63 GiB
Duration : 1h 43mn
Overall bit rate : 5 047 Kbps
Movie name : Xusan_Gr@nd
Encoded date : UTC 2017-04-14 13:05:11
Writing application : mkvmerge v6.8.0 ('Theme for Great Cities') 64bit built on Mar 2 2014 21:34:26
Writing library : libebml v1.3.0 + libmatroska v1.4.1
Video
ID : 1
Format : AVC
Format/Info : Advanced Video Codec
Format profile : High@L4.0
Format settings, CABAC : Yes
Format settings, ReFrames : 5 frames
Codec ID : V_MPEG4/ISO/AVC
Duration : 1h 43mn
Bit rate : 4 434 Kbps
Width : 1 916 pixels
Height : 800 pixels
Display aspect ratio : 2.40:1
Frame rate : 23.976 fps
Color space : YUV
Chroma subsampling : 4:2:0
Bit depth : 8 bits
Scan type : Progressive
Bits/(Pixel*Frame) : 0.121
Stream size : 3.19 GiB (88%)
Title : The Great Wall (2016) - Release for HDCLUB
Language : English
Default : Yes
Forced : No
Color primaries : BT.709-5, BT.1361, IEC 61966-2-4, SMPTE RP177
Transfer characteristics : BT.709-5, BT.1361
Matrix coefficients : BT.709-5, BT.1361, IEC 61966-2-4 709, SMPTE RP177
Audio #1
ID : 2
Format : AC-3
Format/Info : Audio Coding 3
Mode extension : CM (complete main)
Format settings, Endianness : Big
Codec ID : A_AC3
Duration : 1h 43mn
Bit rate mode : Constant
Bit rate : 384 Kbps
Channel(s) : 6 channels
Channel positions : Front: L C R, Side: L R, LFE
Sampling rate : 48.0 KHz
Bit depth : 16 bits
Compression mode : Lossy
Stream size : 283 MiB (8%)
Title : AC3 5.1 @ 384 kbps - DUB, iTunes
Language : Russian
Default : Yes
Forced : No
Audio #2
ID : 3
Format : MPEG Audio
Format version : Version 1
Format profile : Layer 3
Mode : Joint stereo
Mode extension : MS Stereo
Codec ID : A_MPEG/L3
Codec ID/Hint : MP3
Duration : 1h 43mn
Bit rate mode : Constant
Bit rate : 128 Kbps
Channel(s) : 2 channels
Sampling rate : 44.1 KHz
Compression mode : Lossy
Stream size : 94.4 MiB (3%)
Title : Xusan_Gr@nd
Writing library : LAME3.98.2
Language : Uzbek
Default : No
Forced : No
--
Profil ShX

Gr@nd ®

Jins:
Yigit
Staj:
1 yil 1 oy
Xabarlar:
158

Qayerdan: Jizzax Forish

Taqiq:

XAMMAGA KO`RISHNI TAFSIYA QILAMAN

Mavzu yaratish 03-Noy-2017 08:47 (7 daqiqa o‘tgach)

Iqitibos

Profil ShX

UZTEXNO

Jins:
Yigit
Staj:
1 yil 2 oy
Xabarlar:
25
Taqiq:

745 3.63 GB
Oltin berila iltimos.

Mavzu yaratish 03-Noy-2017 19:42 (10 soat o‘tgach)

Iqitibos

Profil ShX

Striker

Jins:
Yigit
Staj:
1 yil 3 oy
Xabarlar:
37
Taqiq:

745XAMMAGA KO`RISHNI TAFSIYA QILAMAN
Ha juda tugri zur kino

Mavzu yaratish 03-Noy-2017 23:25 (3 soat o‘tgach)

Iqitibos

Profil ShX

Deejay

Jins:
Yigit
Staj:
1 yil 3 oy
Xabarlar:
22

Qayerdan: Daejeon#

Taqiq:

multifilm ko'rgande bo'ldm xD

Mavzu yaratish 04-Noy-2017 09:22 (9 soat o‘tgach)

Iqitibos

Profil ShX

Rico_Bek

Jins:
Yigit
Staj:
1 yil 1 oy
Xabarlar:
125

Qayerdan: Andijon

Taqiq:

Gr@nd, Raxmat.
Kochirayotgan UO chilar Dobavit pir qilvoringlar, iltimos.
IP va Port 10.3.43.57:57000


So‘ngi marta tahrirlandi: Rico_Bek (2017-11-07 14:01), Jami tahrirlangan 1 marta

Mavzu yaratish 06-Noy-2017 14:16 (2 kun 4 soat o‘tgach)

Iqitibos

Profil ShX

Rico_Bek

Jins:
Yigit
Staj:
1 yil 1 oy
Xabarlar:
125

Qayerdan: Andijon

Taqiq:

758Gr@nd, Raxmat.
Kochirayotgan UO chilar Dobavit pir qilvoringlar, iltimos.
IP va Port 10.3.43.57:57000
Yangi IP va Port 10.3.226.127:57000

Mavzu yaratish 07-Noy-2017 14:01 (23 soat o‘tgach)

Iqitibos

Profil ShX

Rico_Bek

Jins:
Yigit
Staj:
1 yil 1 oy
Xabarlar:
125

Qayerdan: Andijon

Taqiq:

Ko`chirayotgan UO chilar katta tezlikda ko`chirmoqchi bo`lsez uTorrentda Добавит пир qilvoringlar -> IP va Port 10.3.227.97:57000.

Mavzu yaratish 08-Noy-2017 10:01 (19 soat o‘tgach)

Iqitibos

Profil ShX

Rico_Bek

Jins:
Yigit
Staj:
1 yil 1 oy
Xabarlar:
125

Qayerdan: Andijon

Taqiq:

10.5.144.95:57000

Mavzu yaratish 09-Noy-2017 16:37 (1 kun 6 soat o‘tgach)

Iqitibos

Profil ShX

nurillo123

Jins:
Ko‘rsatilmagan
Staj:
1 yil
Xabarlar:
16
Taqiq:

Gr@nd,

Mavzu yaratish 08-Dek-2017 17:42 (29 kun o‘tgach)

Iqitibos

Profil ShX
Xabarlarni ko‘rsatish:    

Hozirgi vaqt: 21-Noy 19:46

Vaqtlar farqi: UTC + 5



Siz mavzu yaratishingiz mumkin emas
Siz xabarlarga javob qaytarishingiz mumkin emas
Siz o‘z xabarlaringizni tahrirlashingiz mumkin emas
Siz o‘z xabarlaringizni o‘chirishingiz mumkin emas
Siz so‘rovlarda ovoz berishingiz mumkin emas
Siz xabalarga fayllarni biriktirishingiz mumkin emas
Siz fayllarni ko‘chirishingiz mumkin emas