Tarqatmalar statistikasi
Yoʻq
 
     
 
 

Gr@nd ®

Jins:
Yigit
Staj:
11 oy 27 kun
Xabarlar:
150

Qayerdan: Jizzax Forish

Taqiq:

-Buyuk Yo'lbars / Великий тигр / Daeho (The Tiger)- Davlat: Yujnaya Korеya
Janr: Jangari, trillеr, sarguzasht, istoriya
Chiqqan yili: 2015
Davomiyligi: 02:19:54-Перевод: Профессиональный (дублированный) O'zbek tilida
Rejissiyor: Pak Xun Chjon-Rollarda: Chxvе Min Sik, Chon Man Sik, Xon-Fa Kim, Kim San Xo, Yun Vu Li, Ra Mi Ran, Xyun So`n-min, Yu-Bin Sun, Rеn Osugi-Описание: 1925 yil, Koreyada Yaponiyalik ishg'ol davri. Yo'lboshchi terilarning muxlisi, Yaponiya harbiy vaziri, "Koreyaning barcha yo'lbarslarining shohi" ni qo'lga olishni buyuradi. Vazifa xavfini tushunib, ovchilar mamlakatning eng katta ovchisi bo'lgan sobiq do'stiga murojaat qilishadi. U yordam berishni rad etadi, lekin otasi otasi bilan janjallashib, ovchilar safiga qo'shiladi ...-Качество видео: WEBRip
Формат видео: MKV-Video: MPEG4 Video (H264) 1024x432 30fps 2 765 Kbps
Audio: AAC 44100Hz stereo Rus
Audio: MP3 48000Hz 2ch 128kbps Uzb
-

MediaInfo

General
Unique ID : 226376028975237192524587763561557942125 (0xAA4E6FF23432A4888A76BC5E98445F6D)
Format : Matroska
Format version : Version 4 / Version 2
File size : 3.08 GiB
Duration : 2h 19mn
Overall bit rate : 3 147 Kbps
Movie name : Xusan_Gr@nd
Encoded date : UTC 2017-05-31 08:41:34
Writing application : mkvmerge v6.8.0 ('Theme for Great Cities') 64bit built on Mar 2 2014 21:34:26
Writing library : libebml v1.3.0 + libmatroska v1.4.1
Video
ID : 1
Format : AVC
Format/Info : Advanced Video Codec
Format profile : High@L4.1
Format settings, CABAC : Yes
Format settings, ReFrames : 4 frames
Codec ID : V_MPEG4/ISO/AVC
Duration : 2h 19mn
Bit rate : 2 765 Kbps
Width : 1 024 pixels
Height : 432 pixels
Display aspect ratio : 2.40:1
Frame rate : 30.000 fps
Color space : YUV
Chroma subsampling : 4:2:0
Bit depth : 8 bits
Scan type : Progressive
Bits/(Pixel*Frame) : 0.208
Stream size : 2.70 GiB (88%)
Writing library : x264 core 148 r2638 7599210
Encoding settings : cabac=1 / ref=4 / deblock=1:0:0 / analyse=0x3:0x133 / me=umh / subme=9 / psy=1 / psy_rd=1.00:0.00 / mixed_ref=1 / me_range=16 / chroma_me=1 / trellis=2 / 8x8dct=1 / cqm=0 / deadzone=21,11 / fast_pskip=1 / chroma_qp_offset=-2 / threads=13 / lookahead_threads=1 / sliced_threads=0 / nr=0 / decimate=1 / interlaced=0 / bluray_compat=0 / constrained_intra=0 / bframes=3 / b_pyramid=2 / b_adapt=2 / b_bias=0 / direct=3 / weightb=1 / open_gop=0 / weightp=2 / keyint=300 / keyint_min=30 / scenecut=40 / intra_refresh=0 / rc_lookahead=60 / rc=crf / mbtree=1 / crf=17.0 / qcomp=0.60 / qpmin=0 / qpmax=69 / qpstep=4 / vbv_maxrate=62500 / vbv_bufsize=78125 / crf_max=0.0 / nal_hrd=none / filler=0 / ip_ratio=1.40 / aq=1:1.00
Language : Korean
Default : Yes
Forced : No
Audio #1
ID : 2
Format : AC-3
Format/Info : Audio Coding 3
Mode extension : CM (complete main)
Format settings, Endianness : Big
Codec ID : A_AC3
Duration : 2h 19mn
Bit rate mode : Constant
Bit rate : 192 Kbps
Channel(s) : 2 channels
Channel positions : Front: L R
Sampling rate : 48.0 KHz
Bit depth : 16 bits
Compression mode : Lossy
Stream size : 192 MiB (6%)
Default : Yes
Forced : No
Audio #2
ID : 3
Format : MPEG Audio
Format version : Version 1
Format profile : Layer 3
Mode : Joint stereo
Mode extension : MS Stereo
Codec ID : A_MPEG/L3
Codec ID/Hint : MP3
Duration : 2h 19mn
Bit rate mode : Constant
Bit rate : 128 Kbps
Channel(s) : 2 channels
Sampling rate : 44.1 KHz
Compression mode : Lossy
Stream size : 128 MiB (4%)
Title : Xusan_Gr@nd
Writing library : LAME3.98.2
Language : Uzbek
Default : No
Forced : No
-


So‘ngi marta tahrirlandi: Gr@nd (2017-10-30 12:37), Jami tahrirlangan 3 marta
Profil ShX

Gr@nd ®

Jins:
Yigit
Staj:
11 oy 27 kun
Xabarlar:
150

Qayerdan: Jizzax Forish

Taqiq:

Hammaga ko'rishni tafsiya qilaman

Mavzu yaratish 14-Okt-2017 23:22 (2 daqiqa o‘tgach)

Iqitibos

Profil ShX

BestBoy

Jins:
Yigit
Staj:
11 oy 17 kun
Xabarlar:
62
Taqiq:

nice uje oddiy kachestvoga qiziqmay qoydim tolka torrent

Mavzu yaratish 15-Okt-2017 00:17 (55 daqiqa o‘tgach)

Iqitibos

Profil ShX

Frozen

Jins:
Yigit
Staj:
1 yil 1 oy
Xabarlar:
58

Qayerdan: Toshkent, Navoi

Taqiq:

Kachestvinni HD kino korsa odam korgande boladida ;)

Mavzu yaratish 15-Okt-2017 00:43 (26 daqiqa o‘tgach)

Iqitibos

Profil ShX

RustamoFF

Jins:
Yigit
Staj:
11 oy 10 kun
Xabarlar:
8

Qayerdan: Toshkent

Taqiq:

Mana okala adminla moderla mani eski qigan yasagan ishlarim eskilari xolasela buladanam zor qib qoldan kegancha qib yassab beroliman qolimdan keladi...

Mavzu yaratish 15-Okt-2017 20:15 (19 soat o‘tgach)

Iqitibos

Profil ShX
Xabarlarni ko‘rsatish:    

Hozirgi vaqt: 23-Sen 11:45

Vaqtlar farqi: UTC + 5



Siz mavzu yaratishingiz mumkin emas
Siz xabarlarga javob qaytarishingiz mumkin emas
Siz o‘z xabarlaringizni tahrirlashingiz mumkin emas
Siz o‘z xabarlaringizni o‘chirishingiz mumkin emas
Siz so‘rovlarda ovoz berishingiz mumkin emas
Siz xabalarga fayllarni biriktirishingiz mumkin emas
Siz fayllarni ko‘chirishingiz mumkin emas