˂
˃
Tarqatmalar statistikasi
Ko‘chiraman: [ 2 ]
Ko‘chirib bo‘ldim: [ 1 ]
 
     
 
 

Gr@nd ®

Jins:
Yigit
Staj:
1 yil 1 oy
Xabarlar:
158

Qayerdan: Jizzax Forish

Taqiq:

-Changalzor | Джунгли / Jungle- Davlat: Avstraliya, Kolumbiya
Janr: trillеr, drama, sarguzasht
Chiqqan yili: 2017
Davomiyligi: 01:55:22-Tarjima: Professional (dublyaj qilingan) O'zbek tilida-Rejissiyor: Greg McLean-Rollarda: Deniel Redkliff, Tomas Krеchman, Alеks Rassеll, Djoel Djеkson, Lili Sallivan, Yasmin Kassim, Djon Bluzal, Yatsеk Koman, Lucho Vеlasko, Luis Lopеz-Описание: Do'stlar guruhi ekzotik tasurotlarni izlashda Boliviyaning bepoyon o'rmonlariga ketadi. Biroq, yo'lovchining yo'qolishi va do'stlar yirtqich tabiat bilan bir joyda turishi bilan qiziqarli sarguzasht sifatida boshlangan sayohat, omon qolish uchun kurashga aylanadi.-Videoning sifati: BDRip
Формат видео: MKV-Video: MPEG4 Video (H264) 1024x426 23.976fps 2 152 Kbps
Audio: Dolby AC3 48000Hz / 6ch / 384 kbps Rus
Audio: Dolby AC3 48000Hz / 6ch / 448 kbps Eng
Audio: MP3 48000Hz / 2ch / 128kbps Uzb
-

MediaInfo

General
Unique ID : 191902425573767948565703705263038919345 (0x905F10126F892CD096A73BCB1535F2B1)
Format : Matroska
Format version : Version 4 / Version 2
File size : 2.51 GiB
Duration : 1h 55mn
Overall bit rate : 3 114 Kbps
Movie name : Xusan_Gr@nd
Encoded date : UTC 2017-12-05 12:12:16
Writing application : mkvmerge v6.8.0 ('Theme for Great Cities') 64bit built on Mar 2 2014 21:34:26
Writing library : libebml v1.3.0 + libmatroska v1.4.1
Video
ID : 1
Format : AVC
Format/Info : Advanced Video Codec
Format profile : High@L4.1
Format settings, CABAC : Yes
Format settings, ReFrames : 10 frames
Codec ID : V_MPEG4/ISO/AVC
Duration : 1h 55mn
Bit rate : 2 152 Kbps
Width : 1 024 pixels
Height : 426 pixels
Display aspect ratio : 2.40:1
Frame rate : 23.976 fps
Color space : YUV
Chroma subsampling : 4:2:0
Bit depth : 8 bits
Scan type : Progressive
Bits/(Pixel*Frame) : 0.206
Stream size : 1.69 GiB (67%)
Writing library : x264 core 146 r2538 121396c
Encoding settings : cabac=1 / ref=10 / deblock=1:-3:-3 / analyse=0x3:0x133 / me=umh / subme=11 / psy=1 / psy_rd=1.00:0.05 / mixed_ref=1 / me_range=48 / chroma_me=1 / trellis=2 / 8x8dct=1 / cqm=0 / deadzone=21,11 / fast_pskip=1 / chroma_qp_offset=-3 / threads=6 / lookahead_threads=1 / sliced_threads=0 / nr=0 / decimate=1 / interlaced=0 / bluray_compat=0 / constrained_intra=0 / bframes=10 / b_pyramid=2 / b_adapt=2 / b_bias=0 / direct=3 / weightb=1 / open_gop=0 / weightp=2 / keyint=240 / keyint_min=23 / scenecut=40 / intra_refresh=0 / rc_lookahead=40 / rc=2pass / mbtree=0 / bitrate=2152 / ratetol=1.0 / qcomp=0.60 / qpmin=0 / qpmax=69 / qpstep=4 / cplxblur=20.0 / qblur=0.5 / vbv_maxrate=50000 / vbv_bufsize=62500 / nal_hrd=none / filler=0 / ip_ratio=1.40 / pb_ratio=1.30 / aq=1:1.00
Language : English
Default : Yes
Forced : No
Audio #1
ID : 2
Format : AC-3
Format/Info : Audio Coding 3
Mode extension : CM (complete main)
Format settings, Endianness : Big
Codec ID : A_AC3
Duration : 1h 55mn
Bit rate mode : Constant
Bit rate : 384 Kbps
Channel(s) : 6 channels
Channel positions : Front: L C R, Side: L R, LFE
Sampling rate : 48.0 KHz
Bit depth : 16 bits
Compression mode : Lossy
Stream size : 317 MiB (12%)
Title : iTunes
Language : Russian
Default : Yes
Forced : No
Audio #2
ID : 3
Format : AC-3
Format/Info : Audio Coding 3
Mode extension : CM (complete main)
Format settings, Endianness : Big
Codec ID : A_AC3
Duration : 1h 55mn
Bit rate mode : Constant
Bit rate : 448 Kbps
Channel(s) : 6 channels
Channel positions : Front: L C R, Side: L R, LFE
Sampling rate : 48.0 KHz
Bit depth : 16 bits
Compression mode : Lossy
Stream size : 370 MiB (14%)
Title : Original
Language : English
Default : No
Forced : No
Audio #3
ID : 4
Format : MPEG Audio
Format version : Version 1
Format profile : Layer 3
Mode : Joint stereo
Mode extension : MS Stereo
Codec ID : A_MPEG/L3
Codec ID/Hint : MP3
Duration : 1h 55mn
Bit rate mode : Constant
Bit rate : 128 Kbps
Channel(s) : 2 channels
Sampling rate : 44.1 KHz
Compression mode : Lossy
Stream size : 106 MiB (4%)
Title : Xusan_Gr@nd
Writing library : LAME3.98.2
Language : Uzbek
Default : No
Forced : No
-
Profil ShX

nurillo123

Jins:
Ko‘rsatilmagan
Staj:
1 yil
Xabarlar:
16
Taqiq:

Gr@nd, qasi pragrama iwlatvosiz ilojo bosa orgatin ozbechaga ogiriwi

Mavzu yaratish 06-Dek-2017 05:41 (9 soat o‘tgach)

Iqitibos

Profil ShX

Serjjo

Jins:
Yigit
Staj:
1 yil 2 oy
Xabarlar:
3
Taqiq:

Gr@nd, Salom, ovozi yaxshi tushganmi

Mavzu yaratish 11-Dek-2017 22:45 (5 kun o‘tgach)

Iqitibos

Profil ShX

Javohir123

Jins:
Yigit
Staj:
1 yil 1 oy
Xabarlar:
48
Taqiq:

Serjjo, Faqat siz ovoz qo'yasizizmi Albatta tushgande

Mavzu yaratish 13-Dek-2017 22:43 (1 kun 23 soat o‘tgach)

Iqitibos

Profil ShX

Serjjo

Jins:
Yigit
Staj:
1 yil 2 oy
Xabarlar:
3
Taqiq:

Javohir123, xa man qo'yaman o'rgataman xam lekin sizdan so'ramadim.

Mavzu yaratish 14-Dek-2017 00:04 (1 soat 21 daqiqa o‘tgach)

Iqitibos

Profil ShX

UmarShoh

Jins:
Yigit
Staj:
8 oy 10 kun
Xabarlar:
371
Taqiq:

oka tarqatasizmi kinoni yuklab olay

Mavzu yaratish 27-Mar-2018 14:37 (3 oy 13 kun o‘tgach)

Iqitibos

Profil ShX
Xabarlarni ko‘rsatish:    

Hozirgi vaqt: 15-Noy 10:47

Vaqtlar farqi: UTC + 5



Siz mavzu yaratishingiz mumkin emas
Siz xabarlarga javob qaytarishingiz mumkin emas
Siz o‘z xabarlaringizni tahrirlashingiz mumkin emas
Siz o‘z xabarlaringizni o‘chirishingiz mumkin emas
Siz so‘rovlarda ovoz berishingiz mumkin emas
Siz xabalarga fayllarni biriktirishingiz mumkin emas
Siz fayllarni ko‘chirishingiz mumkin emas