Tarqatmalar statistikasi
Ko‘chirmoqdaman: [ 1 ]
Ko‘chirib bo‘ldim: [ 1 ]
 
     
 
 

Gr@nd ®

Jins:
Yigit
Staj:
11 oy 23 kun
Xabarlar:
150

Qayerdan: Jizzax Forish

Taqiq:

-Chappi Laqabli Robot | Робот по имени Чаппи | Chappie- -Davlat: Mеksika, AQSH
Janr: Fantastika, jangari, trillеr
Chiqqan yili: 2015
Davomiyligi: 02:00:21-Tarjima: Professional (dublyaj qilingan) O'zbek tilida-Rejissiyor: Neill Blomkamp-Rollarda: Sharlto Kopli, Dеv Patеl, Nindzya, Yolandi Fissеr, Xosе Pablo Kantilo, Xyu Djеkman, Sigurni Uivеr, Brendon Orе, Djonni Sеlеma, Andеrson Kupеr-Описание: Chappi - bu bolalikdan ustundir. Boshqa har qanday bola singari, u atrof-muhitning ta'siriga tushadi va uning yuragi va ruhi unga o'z yo'lini topishga yordam beradi.Lekin Chappining boshqalardan farqli o'laroq, bitta narsa bor. U his va o'ylash mumkin bo'lgan birinchi robot.-Videoning sifati: BDRip
Формат видео: MKV
-

Video: MPEG4 Video (H264) 1024x424 23.976fps 1 995 Kbps
Audio: Dolby AC3 48000Hz 6ch Rus
Audio: Dolby AC3 48000Hz 6ch Eng
Audio: MP3 48000Hz 2ch 128kbps Uzb
-

MediaInfo

General
Unique ID : 247077611940078093618363455210375581948 (0xB9E16AC9D69D0FE293946FBE37BB90FC)
Format : Matroska
Format version : Version 4 / Version 2
File size : 2.27 GiB
Duration : 2h 0mn
Overall bit rate : 2 700 Kbps
Movie name : Xusan_Gr@nd
Encoded date : UTC 2017-05-31 14:32:17
Writing application : mkvmerge v6.8.0 ('Theme for Great Cities') 64bit built on Mar 2 2014 21:34:26
Writing library : libebml v1.3.0 + libmatroska v1.4.1
Video
ID : 1
Format : AVC
Format/Info : Advanced Video Codec
Format profile : High@L4.1
Format settings, CABAC : Yes
Format settings, ReFrames : 10 frames
Codec ID : V_MPEG4/ISO/AVC
Duration : 2h 0mn
Bit rate : 1 995 Kbps
Width : 1 024 pixels
Height : 424 pixels
Display aspect ratio : 2.40:1
Frame rate : 23.976 fps
Color space : YUV
Chroma subsampling : 4:2:0
Bit depth : 8 bits
Scan type : Progressive
Bits/(Pixel*Frame) : 0.192
Stream size : 1.63 GiB (72%)
Title : Chappie.2015.x264.D.WEB-DLRip.(AVC).by.StarbirS
Writing library : x264 core 146 r2538 121396c
Encoding settings : cabac=1 / ref=10 / deblock=1:-3:-3 / analyse=0x3:0x113 / me=umh / subme=10 / psy=1 / psy_rd=1.05:0.15 / mixed_ref=1 / me_range=32 / chroma_me=1 / trellis=2 / 8x8dct=1 / cqm=0 / deadzone=21,11 / fast_pskip=0 / chroma_qp_offset=-3 / threads=12 / lookahead_threads=1 / sliced_threads=0 / nr=0 / decimate=0 / interlaced=0 / bluray_compat=0 / constrained_intra=0 / bframes=6 / b_pyramid=2 / b_adapt=2 / b_bias=0 / direct=3 / weightb=1 / open_gop=1 / weightp=2 / keyint=240 / keyint_min=23 / scenecut=40 / intra_refresh=0 / rc=2pass / mbtree=0 / bitrate=1995 / ratetol=1.0 / qcomp=0.65 / qpmin=0 / qpmax=69 / qpstep=4 / cplxblur=20.0 / qblur=0.5 / ip_ratio=1.40 / pb_ratio=1.30 / aq=3:0.90
Language : English
Default : Yes
Forced : No
Audio #1
ID : 2
Format : AC-3
Format/Info : Audio Coding 3
Mode extension : CM (complete main)
Format settings, Endianness : Big
Codec ID : A_AC3
Duration : 2h 0mn
Bit rate mode : Constant
Bit rate : 384 Kbps
Channel(s) : 6 channels
Channel positions : Front: L C R, Side: L R, LFE
Sampling rate : 48.0 KHz
Bit depth : 16 bits
Compression mode : Lossy
Stream size : 331 MiB (14%)
Title : Дублированный (iTunes)
Language : Russian
Default : Yes
Forced : No
Audio #2
ID : 3
Format : AC-3
Format/Info : Audio Coding 3
Mode extension : CM (complete main)
Format settings, Endianness : Big
Codec ID : A_AC3
Duration : 2h 0mn
Bit rate mode : Constant
Bit rate : 192 Kbps
Channel(s) : 2 channels
Channel positions : Front: L R
Sampling rate : 48.0 KHz
Bit depth : 16 bits
Compression mode : Lossy
Stream size : 165 MiB (7%)
Language : English
Default : No
Forced : No
Audio #3
ID : 4
Format : MPEG Audio
Format version : Version 1
Format profile : Layer 3
Mode : Joint stereo
Mode extension : MS Stereo
Codec ID : A_MPEG/L3
Codec ID/Hint : MP3
Duration : 2h 0mn
Bit rate mode : Constant
Bit rate : 128 Kbps
Channel(s) : 2 channels
Sampling rate : 44.1 KHz
Compression mode : Lossy
Stream size : 110 MiB (5%)
Title : Xusan_Gr@nd
Writing library : LAME3.98.2
Language : Uzbek
Default : No
Forced : No
Profil ShX

bekzof

Jins:
Ko‘rsatilmagan
Staj:
9 oy 6 kun
Xabarlar:
1
Taqiq:

qanday qilib kinofilmlarni joylasam bo`ladi. men zagruzit degan joyni topolmayapman sizning saytingizdan.
menda har biri 10 GB keladigan Full HD kinolar bor lekin yuklolmayapman

Mavzu yaratish 18-Dek-2017 16:52 (1 oy 19 kun o‘tgach)

Iqitibos

Profil ShX
Xabarlarni ko‘rsatish:    

Hozirgi vaqt: 19-Sen 12:02

Vaqtlar farqi: UTC + 5



Siz mavzu yaratishingiz mumkin emas
Siz xabarlarga javob qaytarishingiz mumkin emas
Siz o‘z xabarlaringizni tahrirlashingiz mumkin emas
Siz o‘z xabarlaringizni o‘chirishingiz mumkin emas
Siz so‘rovlarda ovoz berishingiz mumkin emas
Siz xabalarga fayllarni biriktirishingiz mumkin emas
Siz fayllarni ko‘chirishingiz mumkin emas