˂
˃
Tarqatmalar statistikasi
Ko‘chirmoqdaman: [ 1 ]
Ko‘chirib bo‘ldim: [ 13 ]
 
     
 
 

AxeL ®

Jins:
Yigit
Staj:
9 oy
Xabarlar:
615

Qayerdan: Gronland, Norway

Taqiq:

Cheksizlikni anglagan inson / Человек, который познал бесконечность / The Man Who Knew Infinity- Chiqqan yili: 2015
Davlat: AQSh, Buyuk Britaniya
Janr: Drama, biografiya
Davomiyligi: 01:48:36
Tarjima: Professional (dublyaj qilingan, kadr ortidan) O'zbek tilida-Rejissyor: Met Braun-Ssenariy: Met Braun, Robert Kanigel
Prodyuser: Met Braun, Jon Kans, Edvard R. Pressman
Operator: Larri Smit
Rassomlar: Luchana Arrigi, Radjivan, Endryu Manro-Rollarda: Jeremi Ayrons, Dev Patel, Malkolm Sinkler, Raguvir Joshi, Dxritiman Chatterji, Stiven Fray, Arundatxi Nag, Devika Bise, Padreyk Belani, Tobi Jons, ...-Tavsif: S. Ramanujan. Bu inson aql bovar qilmas aql idrokga ega. Dastlab Ramanujan yozgan nazariyalarini o'zi yashayotgan qishloqdagi amaldorlarga ko'rsatadi. Amaldorlar bu nazariyalarni tushunishmaydi. Ramanujan Trinity koleji matematiklar jamiyatiga xat yozadi, natijada uni Trinityga taklif qilishadi. U yerda ham bir talay nazariyalarni kashf qiladi...-Videoning sifati: BDRip
Video format: MKV
Video: Xvid 720x304 23.976fps 2 092 Kbps
Audio #1: Dolby AC3 48000Hz 6ch 384kbps Rus tilida
Audio #2: Dolby AC3 48000Hz 6ch 384kbps Ingliz tilida
Audio #3: AAC 48000Hz stereo 128 Kbps O'zbek tilida

Media info

General
Unique ID : 237889379030543216237496315102373020785 (0xB2F7D3EE26E81D4D5BBE5BBCFB2F0471)
Complete name : D:\Films\Tarjima\HD Video\Cheksizlikni_anglagan_inson_BDRip.AxeL.mkv
Format : Matroska
Format version : Version 4 / Version 2
File size : 2.27 GiB
Duration : 1h 48mn
Overall bit rate : 2 990 Kbps
Encoded date : UTC 2018-10-01 05:14:30
Writing application : mkvmerge v22.0.0 ('At The End Of The World') 64-bit
Writing library : libebml v1.3.5 + libmatroska v1.4.8
Video
ID : 1
Format : MPEG-4 Visual
Format profile : Advanced Simple@L5
Format settings, BVOP : 1
Format settings, QPel : No
Format settings, GMC : No warppoints
Format settings, Matrix : Custom
Codec ID : V_MS/VFW/FOURCC / XVID
Codec ID/Hint : XviD
Duration : 1h 48mn
Bit rate : 2 092 Kbps
Width : 720 pixels
Height : 304 pixels
Display aspect ratio : 2.35:1
Frame rate mode : Constant
Frame rate : 23.976 (23976/1000) fps
Original frame rate : 23.976 (24000/1001) fps
Color space : YUV
Chroma subsampling : 4:2:0
Bit depth : 8 bits
Scan type : Progressive
Compression mode : Lossy
Bits/(Pixel*Frame) : 0.399
Stream size : 1.59 GiB (70%)
Writing library : XviD 67
Default : Yes
Forced : No
Audio #1
ID : 2
Format : AC-3
Format/Info : Audio Coding 3
Mode extension : CM (complete main)
Format settings, Endianness : Big
Codec ID : A_AC3
Duration : 1h 48mn
Bit rate mode : Constant
Bit rate : 384 Kbps
Channel(s) : 6 channels
Channel positions : Front: L C R, Side: L R, LFE
Sampling rate : 48.0 KHz
Frame rate : 31.250 fps (1536 spf)
Compression mode : Lossy
Stream size : 298 MiB (13%)
Title : Rus tilida (DUB) AxeL
Language : Russian
Default : Yes
Forced : No
Audio #2
ID : 3
Format : AC-3
Format/Info : Audio Coding 3
Mode extension : CM (complete main)
Format settings, Endianness : Big
Codec ID : A_AC3
Duration : 1h 48mn
Bit rate mode : Constant
Bit rate : 384 Kbps
Channel(s) : 6 channels
Channel positions : Front: L C R, Side: L R, LFE
Sampling rate : 48.0 KHz
Frame rate : 31.250 fps (1536 spf)
Compression mode : Lossy
Stream size : 298 MiB (13%)
Title : Ingliz tilida (DUB) AxeL
Language : English
Default : No
Forced : No
Audio #3
ID : 4
Format : AAC
Format/Info : Advanced Audio Codec
Format profile : LC
Codec ID : A_AAC
Duration : 1h 48mn
Bit rate : 128 Kbps
Channel(s) : 2 channels
Channel positions : Front: L R
Sampling rate : 48.0 KHz
Frame rate : 46.875 fps (1024 spf)
Compression mode : Lossy
Stream size : 99.4 MiB (4%)
Title : O'zbek tilida (DUB) AxeL
Language : Uzbek
Default : No
Forced : No
-LAVHALAR--Rahmat va Like bosish sizlardan, reliz qilish bizdan!!!-


So‘ngi marta tahrirlandi: AxeL (2018-10-03 12:59), Jami tahrirlangan 2 marta
Profil ShX

AxeL ®

Jins:
Yigit
Staj:
9 oy
Xabarlar:
615

Qayerdan: Gronland, Norway

Taqiq:

Talablarga binoan!!!

Mavzu yaratish 02-Okt-2018 23:04 (8 daqiqa o‘tgach)

Iqitibos

Profil ShX

MRLG

Jins:
Yigit
Staj:
1 yil 4 oy
Xabarlar:
526
Taqiq:

Zo'r film. Ruscha dublyajda ko'rganman. Shu kabi biografik filmlar tarixda qanaqa bilimli insonlar yashab o'tgani haqida so'zlab beradi. Ko'rishga tavsiya qilaman.
PS: Film aktyori Dev Patel yosh bo'lishiga qaramay bir qancha filmlari orqali mashhurlikka erishgan. Shulardan biri "Harobadan chiqqan millioner", "PI hayoti", "Sher" filmlari shular jumlasidan.

Mavzu yaratish 03-Okt-2018 08:49 (9 soat o‘tgach)

Iqitibos

Profil ShX
Xabarlarni ko‘rsatish:    

Hozirgi vaqt: 18-Dek 00:58

Vaqtlar farqi: UTC + 5



Siz mavzu yaratishingiz mumkin emas
Siz xabarlarga javob qaytarishingiz mumkin emas
Siz o‘z xabarlaringizni tahrirlashingiz mumkin emas
Siz o‘z xabarlaringizni o‘chirishingiz mumkin emas
Siz so‘rovlarda ovoz berishingiz mumkin emas
Siz xabalarga fayllarni biriktirishingiz mumkin emas
Siz fayllarni ko‘chirishingiz mumkin emas