Tarqatmalar statistikasi
Yoʻq
 
     
 
 

Frozen ®

Jins:
Yigit
Staj:
11 oy 4 kun
Xabarlar:
58

Qayerdan: Toshkent, Navoi

Taqiq:


Cho'qintirgan Ota Trilogia | The Godfather Collection: The Coppola Restoration

Davlat: AQSH
Janr: Jinoyat, drama, gangster
Chiqqan yili: 1972-1990
Davomiyligi: 02:57:09 + 03:22:06 + 02:50:15
Tarjima 1: Professional (Ko'p ovozli kadr ortidan) [O'zbek tilida]
Tarjima 2: Dublyaj (kadr ortidan) [Rus tilida]-Rejissiyor: Francis Ford Coppola
Rollarda: Marlon Brando, Al Pacino, Jeyms Caan, Richard Castellano, Diane Keaton, Thalia Shire, Robert Duvall, Sterling Xayden, Richard Conte, Jon Marley, Al Lettieri, Jon Casale, Robert De Niro, Andy Garcia, Eli Wallach, Sofia Coppola, Raf Wallone-
Subtitr: ingliz va Rus tillarida
Original ovoz yo'lagi: Ingliz tilida
Ma'lumot: Крестный отец: Глава семьи, Дон Вито Корлеоне, выдаёт замуж свою дочь. В это время со Второй мировой войны возвращается его любимый сын Майкл. Майкл, герой войны, гордость семьи, не выражает желания заняться жестоким семейным бизнесом. Дон Корлеоне ведёт дела по старым правилам, но наступают иные времена, и появляются люди, желающие изменить сложившиеся порядки. На Дона Корлеоне совершается покушение. Он выживает, но временно теряет возможность управлять делами семьи. Благополучие и даже выживание семьи поставлено под угрозу. И здесь Майклу приходится вмешаться. Ради семьи он совершает двойное убийство, что вынуждает его некоторое время скрываться в Италии. Там он женится, но при покушении на него погибает его молодая жена. Майкл возвращается в Нью-Йорк и всерьёз начинает заниматься делами семьи, сам становясь в итоге её главой...
Крестный отец 2: В центре драмы представители нового поколения гангстерского клана - дона Корлеоне и его сына, для которых не существует моральных преград на пути достижения поставленых целей. Они превращают мафию, построенную по патриархальным, еще сицилийским законам, в весьма прагматичную, жесткую корпорацию, плавно интегрирующуюся в большой бизнес Америки...
Крестный отец 3: Заключительная часть знаменитой гангстерской эпопеи, в которой продолжается рассказ о делах «семьи» дона Корлеоне. Через двадцать лет после событий, описанных в предыдущей картине, Майкл Корлеоне решает заняться легальным бизнесом. Однако противодействие внутри клана заставляет его вспомнить об испытанных кровавых методах общения с противником, что приводит к трагическому итогу...
Videoning sifati: VHSRip
Video formati: MKV
Audio kodeks: AC3 + DTS
Video: 4.7 Мбит/с 704x400
Audio1: (AC3, 2 ch, 448 Кбит/с, 48 KHz) [Ingliz tilida]
Audio2: (AC3, 2 ch, 448 Кбит/с, 48 KHz) [Rus tilida]
Audio3: (MP3, 3 ch, 448 Кбит/с, 16 KHz) [O'zbek tilida]

MediaInfo

E:\kino\Крестный отец - Трилогия\The.Godfather.I.1972.BDRip.uzb.rus.eng.Prince306.mkv
General
Unique ID : 249549696257478455407271231824351927312 (0xBBBD85F498CB06CFB30A16ED92A31C10)
Complete name : E:\kino\Крестный отец - Трилогия\The.Godfather.I.1972.BDRip.uzb.rus.eng.Prince306.mkv
Format : Matroska
Format version : Version 4 / Version 2
File size : 2.96 GiB
Duration : 2h 57mn
Overall bit rate : 2 395 Kbps
Encoded date : UTC 2013-08-22 17:39:03
Writing application : mkvmerge v6.3.0 ('You can't stop me!') built on Jun 28 2013 20:09:41
Writing library : libebml v1.3.0 + libmatroska v1.4.0
Video #1
ID : 1
Format : MPEG-4 Visual
Format profile : Advanced Simple@L5
Format settings, BVOP : Yes
Format settings, QPel : No
Format settings, GMC : No warppoints
Format settings, Matrix : Custom
Codec ID : V_MS/VFW/FOURCC / XVID
Codec ID/Hint : XviD
Duration : 2h 57mn
Bit rate : 1 515 Kbps
Width : 704 pixels
Height : 400 pixels
Display aspect ratio : 16:9
Frame rate mode : Constant
Frame rate : 23.976 fps
Color space : YUV
Chroma subsampling : 4:2:0
Bit depth : 8 bits
Scan type : Progressive
Compression mode : Lossy
Bits/(Pixel*Frame) : 0.224
Stream size : 1.87 GiB (63%)
Writing library : XviD 1.2.1 (UTC 2008-12-04)
Default : Yes
Forced : No
Audio #2
ID : 2
Format : MPEG Audio
Format version : Version 1
Format profile : Layer 3
Mode : Joint stereo
Mode extension : MS Stereo
Codec ID : A_MPEG/L3
Codec ID/Hint : MP3
Duration : 2h 57mn
Bit rate mode : Constant
Bit rate : 256 Kbps
Channel(s) : 2 channels
Sampling rate : 48.0 KHz
Compression mode : Lossy
Stream size : 324 MiB (11%)
Title : to'liq dublaj (ko'p ovozli)
Writing library : LAME3.98.4
Language : Uzbek
Default : Yes
Forced : No
Audio #3
ID : 3
Format : AC-3
Format/Info : Audio Coding 3
Mode extension : CM (complete main)
Format settings, Endianness : Big
Codec ID : A_AC3
Duration : 2h 57mn
Bit rate mode : Constant
Bit rate : 192 Kbps
Channel(s) : 2 channels
Channel positions : Front: L R
Sampling rate : 48.0 KHz
Bit depth : 16 bits
Compression mode : Lossy
Stream size : 243 MiB (8%)
Title : to'liq dublaj (ko'p ovozli)
Language : Russian
Default : No
Forced : No
Audio #4
ID : 4
Format : AC-3
Format/Info : Audio Coding 3
Mode extension : CM (complete main)
Format settings, Endianness : Big
Codec ID : A_AC3
Duration : 2h 57mn
Bit rate mode : Constant
Bit rate : 384 Kbps
Channel(s) : 6 channels
Channel positions : Front: L C R, Side: L R, LFE
Sampling rate : 48.0 KHz
Bit depth : 16 bits
Compression mode : Lossy
Stream size : 487 MiB (16%)
Title : original
Language : English
Default : No
Forced : No
Text #5
ID : 5
Format : UTF-8
Codec ID : S_TEXT/UTF8
Codec ID/Info : UTF-8 Plain Text
Language : English
Default : No
Forced : No
Text #6
ID : 6
Format : UTF-8
Codec ID : S_TEXT/UTF8
Codec ID/Info : UTF-8 Plain Text
Title : kinomania
Language : Russian
Default : No
Forced : No
Text #7
ID : 7
Format : UTF-8
Codec ID : S_TEXT/UTF8
Codec ID/Info : UTF-8 Plain Text
Title : pozitiv
Language : Russian
Default : No
Forced : No
Profil ShX

Vampire_1987

Jins:
Ko‘rsatilmagan
Staj:
10 oy 28 kun
Xabarlar:
98
Taqiq:

Serverga Yuklang )

Mavzu yaratish 13-Fev-2018 13:40 (24 daqiqa o‘tgach)

Iqitibos

Profil ShX

Islam

Jins:
Ko‘rsatilmagan
Staj:
4 oy 26 kun
Xabarlar:
1
Taqiq:

nega ko`chirmayapti ?

Mavzu yaratish 27-Fev-2018 20:24 (14 kun o‘tgach)

Iqitibos

Profil ShX
Xabarlarni ko‘rsatish:    

Hozirgi vaqt: 23-Iyul 03:08

Vaqtlar farqi: UTC + 5



Siz mavzu yaratishingiz mumkin emas
Siz xabarlarga javob qaytarishingiz mumkin emas
Siz o‘z xabarlaringizni tahrirlashingiz mumkin emas
Siz o‘z xabarlaringizni o‘chirishingiz mumkin emas
Siz so‘rovlarda ovoz berishingiz mumkin emas
Siz xabalarga fayllarni biriktirishingiz mumkin emas
Siz fayllarni ko‘chirishingiz mumkin emas