˂
˃
 

MRLG ®

Jins:
Yigit
Staj:
1 yil 3 oy
Xabarlar:
526
Taqiq:

Chumoli odam va Ari / Человек-муравей и Оса / Ant-Man and the Wasp-««Real heroes. Not actual size»»- Chiqqan yili: 2018
Davlat: AQSH
Janr: fantastika, jangari, sarguzasht
Davomiyligi: 01:58:06
Tarjima: O'zbek tilida (Yoshlar) Rus tilida [iTunes]-Rejissyor: Peyton Rid / Peyton Reed--Rollarda: Pol Radd, Evandjelin Lilli, Maykl Penya, Uolton Goggins, Bobbi Kannavale, Djudi Grir, Ti-Ay, David Dastmalchyan, Xanna Djon-Keymen, Ebbi Rayder Fortson, Rendoll Park, Mishel Pfayffer--Tavsif: Skott Leng, u taniqli Chumoli odam, Qasoskorlar jamoasiga kirishiga sazovor bo`lgan. Lekin uni qiziga yaqinroq bo`lish istagi o`z shahri San-Fransiskoda ushlab turadi toki, har qanday holatda daxshat ahmoq o`zini egasini o`lchamini o`zgartira oladigan mo`jizaviy kostyumni yaratuvchisi Doktor Xenk Pim, Skottni yangi xavfli topshiriqqa qo`shilishiga chaqirmaganicha. Chumoli odamga dushmanga qarshi kurashishga yangi sherik - Ari yordamga keladi.-- -Sifat: HDRip
Format: AVI
Video: XviD, 720x304 (2.35:1), 1377 kbps, 23,976 fps, 0,262 bpp
Audio №1: MP3 / 2.0 / 48 kHz / 128 kbps / - Yoshlar.Dub
Audio №2: AC3 / 5.1 / 48 kHz / 384 kbps / - Rus iTunes-

Media Info

General
Complete name                            : D:\Кино\Tarjima filmlar\Chumoli odam va Ari (2018) HDRip.-MRLG.avi
Format                                   : AVI
Format/Info                              : Audio Video Interleave
File size                                : 1.57 GiB
Duration                                 : 1 h 58 min
Overall bit rate                         : 1 903 kb/s
Writing application                      : VirtualDubMod 1.5.10.3 (build 2550/release)
Writing library                          : VirtualDubMod build 2550/release
Video
ID                                       : 0
Format                                   : MPEG-4 Visual
Format profile                           : Advanced Simple@L5
Format settings, BVOP                    : 1
Format settings, QPel                    : No
Format settings, GMC                     : No warppoints
Format settings, Matrix                  : Custom
Codec ID                                 : XVID
Codec ID/Hint                            : XviD
Duration                                 : 1 h 58 min
Bit rate                                 : 1 377 kb/s
Width                                    : 720 pixels
Height                                   : 304 pixels
Display aspect ratio                     : 2.35:1
Frame rate                               : 23.976 (24000/1001) FPS
Color space                              : YUV
Chroma subsampling                       : 4:2:0
Bit depth                                : 8 bits
Scan type                                : Progressive
Compression mode                         : Lossy
Bits/(Pixel*Frame)                       : 0.262
Stream size                              : 1.14 GiB (72%)
Writing library                          : XviD 73
Audio #1
ID                                       : 1
Format                                   : MPEG Audio
Format version                           : Version 1
Format profile                           : Layer 3
Mode                                     : Joint stereo
Mode extension                           : MS Stereo
Codec ID                                 : 55
Codec ID/Hint                            : MP3
Duration                                 : 1 h 58 min
Bit rate mode                            : Constant
Bit rate                                 : 128 kb/s
Channel(s)                               : 2 channels
Sampling rate                            : 48.0 kHz
Compression mode                         : Lossy
Stream size                              : 108 MiB (7%)
Alignment                                : Aligned on interleaves
Interleave, duration                     : 42  ms (1.00 video frame)
Interleave, preload duration             : 504  ms
Title                                    : Yoshlar.Dub | MRLG
Writing library                          : LAME3.100Є
Audio #2
ID                                       : 2
Format                                   : AC-3
Format/Info                              : Audio Coding 3
Mode extension                           : CM (complete main)
Format settings, Endianness              : Big
Codec ID                                 : 2000
Duration                                 : 1 h 58 min
Bit rate mode                            : Constant
Bit rate                                 : 384 kb/s
Channel(s)                               : 6 channels
Channel positions                        : Front: L C R, Side: L R, LFE
Sampling rate                            : 48.0 kHz
Frame rate                               : 31.250 FPS (1536 spf)
Compression mode                         : Lossy
Stream size                              : 324 MiB (20%)
Alignment                                : Split accross interleaves
Interleave, duration                     : 42  ms (1.00 video frame)
Interleave, preload duration             : 500  ms

Miniatyura

- © Template by MRLG


So‘ngi marta tahrirlandi: MRLG (2018-10-05 23:28), Jami tahrirlangan 2 marta
Profil ShX

AxeL

Jins:
Yigit
Staj:
8 oy 24 kun
Xabarlar:
610

Qayerdan: Gronland, Norway

Taqiq:

reliz 15 rahmat va 10 like toplasa tarqatishga qo'yiladi! qani rahmat va likeni ayamaymiz ortoqlar!

Mavzu yaratish 05-Okt-2018 17:04 (7 daqiqa o‘tgach)

Iqitibos

Profil ShX

iJalol_Production

Jins:
Yigit
Staj:
8 oy 15 kun
Xabarlar:
70
Taqiq:

shunaqa iwlar shartmasidi lekin

Mavzu yaratish 05-Okt-2018 19:13 (2 soat 8 daqiqa o‘tgach)

Iqitibos

Profil ShX

N.U.R.I.K.B.E.K

Jins:
Yigit
Staj:
1 yil 1 oy
Xabarlar:
339

Qayerdan: Jizzax. Paxtakor

Taqiq:

MRLG, tarqatmay turing kechkini yozvolib joyliman kechasi tayorlab birda boshlimiza tarqatishni

Mavzu yaratish 05-Okt-2018 20:11 (58 daqiqa o‘tgach)

Iqitibos

Profil ShX

N.U.R.I.K.B.E.K

Jins:
Yigit
Staj:
1 yil 1 oy
Xabarlar:
339

Qayerdan: Jizzax. Paxtakor

Taqiq:

iJalol_Production, sinab ko'rishsinchi qo'lurmay natijaga erisholmaydi

Mavzu yaratish 05-Okt-2018 20:16 (4 daqiqa o‘tgach)

Iqitibos

Profil ShX

Adham Saidumarov

Jins:
Yigit
Staj:
10 oy 6 kun
Xabarlar:
90

Qayerdan: Farg'ona viloyati

Taqiq:

6326reliz 15 rahmat va 10 like toplasa tarqatishga qo'yiladi! qani rahmat va likeni ayamaymiz ortoqlar!
Trackerda Rahmat, Like yeg'gan odamga qanday foydasi bor.

Mavzu yaratish 05-Okt-2018 20:21 (5 daqiqa o‘tgach)

Iqitibos

Profil ShX

N.U.R.I.K.B.E.K

Jins:
Yigit
Staj:
1 yil 1 oy
Xabarlar:
339

Qayerdan: Jizzax. Paxtakor

Taqiq:

Adham Saidumarov, Moder bo'ladi ko'p yig'sa af

Mavzu yaratish 05-Okt-2018 20:22 (1 daqiqa o‘tgach)

Iqitibos

Profil ShX

AxeL

Jins:
Yigit
Staj:
8 oy 24 kun
Xabarlar:
610

Qayerdan: Gronland, Norway

Taqiq:

6334Trackerda Rahmat, Like yeg'gan odamga qanday foydasi bor.
Adham Saidumarov, hech qanaqasiga foydasi yo'q, mehnatga rag'batni so'rab oladigan bo'ldik
6333iJalol_Production, sinab ko'rishsinchi qo'lurmay natijaga erisholmaydi
bu bilan nima demoqchisiz

Mavzu yaratish 05-Okt-2018 20:32 (9 daqiqa o‘tgach)

Iqitibos

Profil ShX

N.U.R.I.K.B.E.K

Jins:
Yigit
Staj:
1 yil 1 oy
Xabarlar:
339

Qayerdan: Jizzax. Paxtakor

Taqiq:

AxeL, deganim bu usulni qo'lamay turib natijasi oldindan qande bulishini bilibumidi, sinab ko'rsin bilamiz natijasini

Mavzu yaratish 05-Okt-2018 20:38 (5 daqiqa o‘tgach)

Iqitibos

Profil ShX

UmarShoh

Jins:
Yigit
Staj:
9 oy 5 kun
Xabarlar:
371
Taqiq:

6326reliz 15 rahmat va 10 like toplasa tarqatishga qo'yiladi! qani rahmat va likeni ayamaymiz ortoqlar!
Vadaga vafo endi tarqatinglar !

Mavzu yaratish 05-Okt-2018 21:43 (1 soat 5 daqiqa o‘tgach)

Iqitibos

Profil ShX

AxeL

Jins:
Yigit
Staj:
8 oy 24 kun
Xabarlar:
610

Qayerdan: Gronland, Norway

Taqiq:

6338
6326reliz 15 rahmat va 10 like toplasa tarqatishga qo'yiladi! qani rahmat va likeni ayamaymiz ortoqlar!
Vadaga vafo endi tarqatinglar !
5 ta odam like bossa bo'ldi

Mavzu yaratish 05-Okt-2018 21:47 (3 daqiqa o‘tgach)

Iqitibos

Profil ShX

Soft-Release

Jins:
Yigit
Staj:
8 oy 27 kun
Xabarlar:
737

Qayerdan: Kattakurgan

Taqiq:

Ertalabgacha qo'yib qo'yinglar Torrentlarizdi yoqib! Tarqatib yuboradilar ertalabgacha ko'chirib olasizlar! Sabrli bo'linglarda!

Mavzu yaratish 05-Okt-2018 21:48 (31 soniya o‘tgach)

Iqitibos

Profil ShX

Soft-Release

Jins:
Yigit
Staj:
8 oy 27 kun
Xabarlar:
737

Qayerdan: Kattakurgan

Taqiq:

6339
6338
6326reliz 15 rahmat va 10 like toplasa tarqatishga qo'yiladi! qani rahmat va likeni ayamaymiz ortoqlar!
Vadaga vafo endi tarqatinglar !
5 ta odam like bossa bo'ldi
AxeL, aa Rahmat ni so'rab olish shart emas dos'tim! Kino kimga yoqqan bo'lsa o'sha odamning o'zi albatta Rahmat aytish uchun tugmachani bosadi! Unday Foydalanuvchilarni ezib siqmanglarda endi! ag

Mavzu yaratish 05-Okt-2018 21:50 (2 daqiqa o‘tgach)

Iqitibos

Profil ShX

iJalol_Production

Jins:
Yigit
Staj:
8 oy 15 kun
Xabarlar:
70
Taqiq:

6341
6339
6338
6326reliz 15 rahmat va 10 like toplasa tarqatishga qo'yiladi! qani rahmat va likeni ayamaymiz ortoqlar!
Vadaga vafo endi tarqatinglar !
5 ta odam like bossa bo'ldi
AxeL, aa Rahmat ni so'rab olish shart emas dos'tim! Kino kimga yoqqan bo'lsa o'sha odamning o'zi albatta Rahmat aytish uchun tugmachani bosadi! Unday Foydalanuvchilarni ezib siqmanglarda endi! ag
Shu akamizni gapiga 10ta layk bosaylik iltimos hammadan!!!!!!!!!

Mavzu yaratish 05-Okt-2018 21:52 (1 daqiqa o‘tgach)

Iqitibos

Profil ShX

MRLG ®

Jins:
Yigit
Staj:
1 yil 3 oy
Xabarlar:
526
Taqiq:

O'rtoqlar ozroq sabr qilasizlar. Aslida Panjara ortida serialini 1-2 kishi ko'chirib olguncha tarqatishda turibman, uni tarqatib bo'lgach, albatta bu kinoga tarqatishga turaman. Noqulayliklar uchun uzr.

Mavzu yaratish 05-Okt-2018 22:08 (15 daqiqa o‘tgach)

Iqitibos

Profil ShX
Xabarlarni ko‘rsatish:    

Hozirgi vaqt: 11-Dek 03:50

Vaqtlar farqi: UTC + 5



Siz mavzu yaratishingiz mumkin emas
Siz xabarlarga javob qaytarishingiz mumkin emas
Siz o‘z xabarlaringizni tahrirlashingiz mumkin emas
Siz o‘z xabarlaringizni o‘chirishingiz mumkin emas
Siz so‘rovlarda ovoz berishingiz mumkin emas
Siz xabalarga fayllarni biriktirishingiz mumkin emas
Siz fayllarni ko‘chirishingiz mumkin emas