˂
˃
Tarqatmalar statistikasi
Ko‘chiraman: [ 1 ]
Ko‘chirmoqdaman: [ 4 ]
Ko‘chirib bo‘ldim: [ 24 ]
 
     
 
 

AxeL ®

Jins:
Yigit
Staj:
9 oy
Xabarlar:
615

Qayerdan: Gronland, Norway

Taqiq:

-Chumoli odam va asalari / Человек-муравей и Оса / Ant-Man and the Wasp- Chiqqan yili: 2018
Davlat: AQSH
Janr: fantastika, jangari, sarguzasht
Davomiyligi: 01:58:06
Tarjima: Dublyaj qilingan (O'zbek tilida) MY5 telekanali-Rejissyor: Peyton Rid / Peyton Reed-Ssenariy: Kris Makkenna, Erik Sommers, Pol Radd, ...
Prodyuser: Viktoriya Alonso, Mitchell Bell, Stiven Brussar, ...
Operator: Dante Spinotti
Kompozitor: Kristofer Bek
Rassom: Sheperd Frankel, Reychel Blok, Maykl E. Goldman, ...
Montaj: Den Lebental, Kreyg Vud, ...-Rollarda: Pol Radd, Evandjelin Lilli, Maykl Penya, Uolton Goggins, Bobbi Kannavale, Djudi Grir, Ti-Ay, David Dastmalchyan, Xanna Djon-Keymen, Ebbi Rayder Fortson, Rendoll Park, Mishel Pfayffer-Tavsif: Skott Leng, u taniqli Chumoli odam, Qasoskorlar jamoasiga kirishiga sazovor bo`lgan. Lekin uni qiziga yaqinroq bo`lish istagi o`z shahri San-Fransiskoda ushlab turadi toki, har qanday holatda daxshat ahmoq o`zini egasini o`lchamini o`zgartira oladigan mo`jizaviy kostyumni yaratuvchisi Doktor Xenk Pim, Skottni yangi xavfli topshiriqqa qo`shilishiga chaqirmaganicha. Chumoli odamga dushmanga qarshi kurashishga yangi sherik - Ari yordamga keladi.--Sifat: BDRip 1080p
Format: MKV
Video: MPEG4 Video (H264) 1920x808 2 500 Kbps
Audio №1: Dolby AC3 48000Hz 6ch 384kbps Rus tilida
Audio №2: AAC 48000Hz 6ch 224 Kbps Ingliz tilida
Audio №2: AAC 48000Hz stereo 2ch 128 kbps O'zbek tilida-

Media Info

General
Unique ID                      : 67938349542819596208342652965165811648 (0x331C733EB68F38A5C592050B3EB147C0)
Complete name                  : D:\Films\Tarjima\HD Video\Chumoli_odam_va_Asalari_1080p_2018_AxeL.mkv
Format                         : Matroska
Format version                 : Version 4 / Version 2
File size                      : 2.67 GiB
Duration                       : 1h 58mn
Overall bit rate               : 3 235 Kbps
Encoded date                   : UTC 2018-10-06 10:56:51
Writing application            : mkvmerge v22.0.0 ('At The End Of The World') 64-bit
Writing library                : libebml v1.3.5 + libmatroska v1.4.8
Video
ID                             : 1
Format                         : AVC
Format/Info                    : Advanced Video Codec
Format profile                 : High@L4.1
Format settings, CABAC         : Yes
Format settings, ReFrames      : 4 frames
Codec ID                       : V_MPEG4/ISO/AVC
Duration                       : 1h 58mn
Bit rate                       : 2 500 Kbps
Width                          : 1 920 pixels
Height                         : 808 pixels
Display aspect ratio           : 2.40:1
Frame rate mode                : Constant
Frame rate                     : 23.976 (23976/1000) fps
Color space                    : YUV
Chroma subsampling             : 4:2:0
Bit depth                      : 8 bits
Scan type                      : Progressive
Bits/(Pixel*Frame)             : 0.067
Stream size                    : 2.06 GiB (77%)
Writing library                : x264 core 152 r2851M ba24899
Encoding settings              : cabac=1 / ref=4 / deblock=1:-1:-1 / analyse=0x3:0x113 / me=umh / subme=9 / psy=1 / psy_rd=1.00:0.15 / mixed_ref=1 / me_range=24 / chroma_me=1 / trellis=2 / 8x8dct=1 / cqm=0 / deadzone=21,11 / fast_pskip=1 / chroma_qp_offset=-3 / threads=32 / lookahead_threads=4 / sliced_threads=0 / nr=0 / decimate=1 / interlaced=0 / bluray_compat=0 / constrained_intra=0 / bframes=3 / b_pyramid=2 / b_adapt=2 / b_bias=0 / direct=3 / weightb=1 / open_gop=0 / weightp=2 / keyint=250 / keyint_min=25 / scenecut=40 / intra_refresh=0 / rc_lookahead=50 / rc=2pass / mbtree=1 / bitrate=2500 / ratetol=1.0 / qcomp=0.60 / qpmin=0 / qpmax=69 / qpstep=4 / cplxblur=20.0 / qblur=0.5 / vbv_maxrate=31250 / vbv_bufsize=31250 / nal_hrd=none / filler=0 / ip_ratio=1.40 / aq=3:1.00
Default                        : Yes
Forced                         : No
Audio #1
ID                             : 2
Format                         : AC-3
Format/Info                    : Audio Coding 3
Mode extension                 : CM (complete main)
Format settings, Endianness    : Big
Codec ID                       : A_AC3
Duration                       : 1h 58mn
Bit rate mode                  : Constant
Bit rate                       : 384 Kbps
Channel(s)                     : 6 channels
Channel positions              : Front: L C R, Side: L R, LFE
Sampling rate                  : 48.0 KHz
Frame rate                     : 31.250 fps (1536 spf)
Compression mode               : Lossy
Delay relative to video        : -43ms
Stream size                    : 324 MiB (12%)
Title                          : iTunes
Language                       : Russian
Default                        : Yes
Forced                         : No
Audio #2
ID                             : 3
Format                         : AAC
Format/Info                    : Advanced Audio Codec
Format profile                 : LC
Codec ID                       : A_AAC
Duration                       : 1h 58mn
Bit rate                       : 224 Kbps
Channel(s)                     : 6 channels
Channel positions              : Front: L C R, Side: L R, LFE
Sampling rate                  : 48.0 KHz
Frame rate                     : 46.875 fps (1024 spf)
Compression mode               : Lossy
Delay relative to video        : -43ms
Stream size                    : 189 MiB (7%)
Language                       : English
Default                        : No
Forced                         : No
Audio #3
ID                             : 4
Format                         : AAC
Format/Info                    : Advanced Audio Codec
Format profile                 : LC
Codec ID                       : A_AAC
Duration                       : 1h 58mn
Bit rate                       : 128 Kbps
Channel(s)                     : 2 channels
Channel positions              : Front: L R
Sampling rate                  : 48.0 KHz
Frame rate                     : 46.875 fps (1024 spf)
Compression mode               : Lossy
Delay relative to video        : -43ms
Stream size                    : 108 MiB (4%)
Title                          : O'zbek tilida AxeL
Language                       : Uzbek
Default                        : No
Forced                         : No


So‘ngi marta tahrirlandi: AxeL (2018-10-06 16:34), Jami tahrirlangan 1 marta
Profil ShX

MRLG

Jins:
Yigit
Staj:
1 yil 4 oy
Xabarlar:
526
Taqiq:

AxeL, sifati aniq WEB-DLRip 1080p mi? Balkim BluRay 1080p dir ?

Mavzu yaratish 06-Okt-2018 16:30 (14 daqiqa o‘tgach)

Iqitibos

Profil ShX

AxeL ®

Jins:
Yigit
Staj:
9 oy
Xabarlar:
615

Qayerdan: Gronland, Norway

Taqiq:

MRLG, tog'ri ekan o'zgartirib qo'ydim
manba

Mavzu yaratish 06-Okt-2018 16:35 (4 daqiqa o‘tgach)

Iqitibos

Profil ShX

Spicger

Jins:
Yigit
Staj:
2 oy 18 kun
Xabarlar:
39

Qayerdan: Chinoz

Taqiq:

gap yo'q

Mavzu yaratish 06-Okt-2018 17:08 (33 daqiqa o‘tgach)

Iqitibos

Profil ShX

Spicger

Jins:
Yigit
Staj:
2 oy 18 kun
Xabarlar:
39

Qayerdan: Chinoz

Taqiq:

ijodizga omad

Mavzu yaratish 06-Okt-2018 17:08 (15 soniya o‘tgach)

Iqitibos

Profil ShX

AxeL ®

Jins:
Yigit
Staj:
9 oy
Xabarlar:
615

Qayerdan: Gronland, Norway

Taqiq:

Spicger, rahmat

Mavzu yaratish 06-Okt-2018 17:29 (20 daqiqa o‘tgach)

Iqitibos

Profil ShX

UmarShoh

Jins:
Yigit
Staj:
9 oy 12 kun
Xabarlar:
371
Taqiq:

AxeL, aka asal ari emas Arini o'zi edi nega desanggiz Wasp-sariq ari ! Bee- esa asal ari degani bularni farqi katta !

Mavzu yaratish 06-Okt-2018 20:38 (3 soat o‘tgach)

Iqitibos

Profil ShX

AxeL ®

Jins:
Yigit
Staj:
9 oy
Xabarlar:
615

Qayerdan: Gronland, Norway

Taqiq:

6368AxeL, aka asal ari emas Arini o'zi edi nega desanggiz Wasp-sariq ari ! Bee- esa asal ari degani bularni farqi katta !
uzr, keyingi safar e'tibor bilan ish qilaman, hozir tog'rilasam ishi ko'payib ketadida, buning ustiga yangi kino montaj ustida ishlayapman

Mavzu yaratish 06-Okt-2018 21:19 (40 daqiqa o‘tgach)

Iqitibos

Profil ShX

Spicger

Jins:
Yigit
Staj:
2 oy 18 kun
Xabarlar:
39

Qayerdan: Chinoz

Taqiq:

6368AxeL, aka asal ari emas Arini o'zi edi nega desanggiz Wasp-sariq ari ! Bee- esa asal ari degani bularni farqi katta !
bu xam asal so'radi ishonavering agar tushuntiriberaman desam ancha chuqurlashib ketamiz indame qo'yuras xaqiqatga yaqinro :)))

Mavzu yaratish 06-Okt-2018 22:08 (49 daqiqa o‘tgach)

Iqitibos

Profil ShX

azizbek

Jins:
Yigit
Staj:
1 yil 1 oy
Xabarlar:
143

Qayerdan: Surxondaryo

Taqiq:

Spicger, bu gap bo'lishi mumkin emas, to'g'ri 5+

Mavzu yaratish 07-Okt-2018 23:09 (1 kun 1 soat o‘tgach)

Iqitibos

Profil ShX

ruziyev

Jins:
Ko‘rsatilmagan
Staj:
1 oy 24 kun
Xabarlar:
2
Taqiq:

qanaqa qilib skachatqilsa buladi

Mavzu yaratish 24-Okt-2018 22:28 (16 kun o‘tgach)

Iqitibos

Profil ShX

ruziyev

Jins:
Ko‘rsatilmagan
Staj:
1 oy 24 kun
Xabarlar:
2
Taqiq:

torrentdan yangi foydalanib boshladim

Mavzu yaratish 24-Okt-2018 22:29 (1 daqiqa o‘tgach)

Iqitibos

Profil ShX
Xabarlarni ko‘rsatish:    

Hozirgi vaqt: 18-Dek 01:07

Vaqtlar farqi: UTC + 5



Siz mavzu yaratishingiz mumkin emas
Siz xabarlarga javob qaytarishingiz mumkin emas
Siz o‘z xabarlaringizni tahrirlashingiz mumkin emas
Siz o‘z xabarlaringizni o‘chirishingiz mumkin emas
Siz so‘rovlarda ovoz berishingiz mumkin emas
Siz xabalarga fayllarni biriktirishingiz mumkin emas
Siz fayllarni ko‘chirishingiz mumkin emas