˂
˃
Tarqatmalar statistikasi
Ko‘chiraman: [ 2 ]
Ko‘chirmoqdaman: [ 1 ]
Ko‘chirib bo‘ldim: [ 1 ]
 
     
 
 

ganster07 ®

Jins:
Yigit
Staj:
1 yil 3 oy
Xabarlar:
23
Taqiq:

Chuqur 2-fasl 1-2 qismlar Turk tilida

Sifat:WEBRip
Format:MP4
Video: MPEG4 Video (H264) 1280x720 25fps 479kbps
Audio: AAC 44100Hz stereo 125kbps

Media Info

General
Complete name : C:\Users\\Downloads\Video\Çukur 2.Sezon\Çukur 2.Sezon 1.Bölüm.MP4
Format : MPEG-4
Format profile : Base Media / Version 2
Codec ID : mp42 (isom/mp42)
File size : 594 MiB
Duration : 2 h 16 min
Overall bit rate mode : Variable
Overall bit rate : 609 kb/s
Encoded date : UTC 2018-09-17 23:43:18
Tagged date : UTC 2018-09-17 23:43:18
gsst : 0
gstd : 8183780
Video
ID : 1
Format : AVC
Format/Info : Advanced Video Codec
Format profile : Main@L3.1
Format settings : CABAC / 3 Ref Frames
Format settings, CABAC : Yes
Format settings, ReFrames : 3 frames
Codec ID : avc1
Codec ID/Info : Advanced Video Coding
Duration : 2 h 16 min
Bit rate : 480 kb/s
Width : 1 280 pixels
Height : 720 pixels
Display aspect ratio : 16:9
Frame rate mode : Constant
Frame rate : 25.000 FPS
Color space : YUV
Chroma subsampling : 4:2:0
Bit depth : 8 bits
Scan type : Progressive
Bits/(Pixel*Frame) : 0.021
Stream size : 468 MiB (79%)
Title : ISO Media file produced by Google Inc. Created on: 09/17/2018.
Encoded date : UTC 2018-09-17 23:43:18
Tagged date : UTC 2018-09-17 23:43:18
Color range : Limited
Color primaries : BT.709
Transfer characteristics : BT.709
Matrix coefficients : BT.709
Audio
ID : 2
Format : AAC
Format/Info : Advanced Audio Codec
Format profile : LC
Codec ID : mp4a-40-2
Duration : 2 h 16 min
Bit rate mode : Variable
Bit rate : 126 kb/s
Channel(s) : 2 channels
Channel positions : Front: L R
Sampling rate : 44.1 kHz
Frame rate : 43.066 FPS (1024 SPF)
Compression mode : Lossy
Stream size : 123 MiB (21%)
Title : ISO Media file produced by Google Inc. Created on: 09/17/2018.
Encoded date : UTC 2018-09-17 23:43:18
Tagged date : UTC 2018-09-17 23:43:18

Skrinlist



Profil ShX

BestBoy

Jins:
Yigit
Staj:
1 yil 2 oy
Xabarlar:
63
Taqiq:

ruscha subtitr yuqmi ?

Mavzu yaratish 26-Sen-2018 23:37 (2 soat 43 daqiqa o‘tgach)

Iqitibos

Profil ShX
Xabarlarni ko‘rsatish:    

Hozirgi vaqt: 18-Dek 00:45

Vaqtlar farqi: UTC + 5



Siz mavzu yaratishingiz mumkin emas
Siz xabarlarga javob qaytarishingiz mumkin emas
Siz o‘z xabarlaringizni tahrirlashingiz mumkin emas
Siz o‘z xabarlaringizni o‘chirishingiz mumkin emas
Siz so‘rovlarda ovoz berishingiz mumkin emas
Siz xabalarga fayllarni biriktirishingiz mumkin emas
Siz fayllarni ko‘chirishingiz mumkin emas