˂
˃
Tarqatmalar statistikasi
Ko‘chiraman: [ 2 ]
Ko‘chirmoqdaman: [ 4 ]
Ko‘chirib bo‘ldim: [ 1 ]
 
     
 
 

Dos ®

Jins:
Ko‘rsatilmagan
Staj:
1 oy 30 kun
Xabarlar:
8
Taqiq:

Çukur - 2 sezon-- Chiqqan yili: 2018
Davlat: Turkiya
Janr: Drama, Jangari, Triller, Detektiv
Til: Turkcha [Orginal]
Subtitr: Ruscha--Rejissyor: Senan Ozturk--Aktroylar: Aras Bulut Iynemli, Dilan Chichek Deniz, Erchan Kesal, Perihan Savash, Necip Memili, O'ner Erkan, Burak Celik, Erkan Kolchak Kostendil, Rizo Kochaogli, Erkan Avchi, Berkay Atesh, Cagan Atakan Arslan--Tasnif: Chuqur ko'chalari jang maydoniga qaytadi. Kochovalilar o'rniga o'tirgan Qoraqo'zilar bilan o'zaro jang boshlanadi. Yamachning akasi Jumali Kochovali va Yamach qoraqo'zilar boshliqlari Cheto va Mahsunga qarshi jang olib borishadi. Yamachga ularning o'gay akasi Salih (Vartolu Sadittin) yordam beradi.----Sifati: AVC 360p
Format: MP4
Video: AVC1 640x360, 25fps
Audio: AAC, 96kb/s, 44.1 kHz

Media Info

General
Complete name : ***.mp4
Format : MPEG-4
Format profile : Base Media / Version 2
Codec ID : mp42 (isom/mp42)
File size : 408 MiB
Duration : 2 h 15 min
Overall bit rate mode : Variable
Overall bit rate : 421 kb/s
Encoded date : UTC 2018-10-09 19:17:03
Tagged date : UTC 2018-10-09 19:17:03
Video
ID : 1
Format : AVC
Format/Info : Advanced Video Codec
Format profile : Baseline@L3
Format settings : 1 Ref Frames
Format settings, CABAC : No
Format settings, ReFrames : 1 frame
Codec ID : avc1
Codec ID/Info : Advanced Video Coding
Duration : 2 h 15 min
Bit rate : 323 kb/s
Width : 640 pixels
Height : 360 pixels
Display aspect ratio : 16:9
Frame rate mode : Constant
Frame rate : 25.000 FPS
Color space : YUV
Chroma subsampling : 4:2:0
Bit depth : 8 bits
Scan type : Progressive
Bits/(Pixel*Frame) : 0.056
Stream size : 312 MiB (77%)
Title : ISO Media file produced by Google Inc. Created on: 10/09/2018.
Encoded date : UTC 2018-10-09 19:17:03
Tagged date : UTC 2018-10-09 19:17:03
Color range : Limited
Color primaries : BT.709
Transfer characteristics : BT.709
Matrix coefficients : BT.709
Audio
ID : 2
Format : AAC
Format/Info : Advanced Audio Codec
Format profile : LC
Codec ID : mp4a-40-2
Duration : 2 h 15 min
Bit rate mode : Variable
Bit rate : 96.0 kb/s
Channel(s) : 2 channels
Channel positions : Front: L R
Sampling rate : 44.1 kHz
Frame rate : 43.066 FPS (1024 SPF)
Compression mode : Lossy
Stream size : 93.0 MiB (23%)
Title : ISO Media file produced by Google Inc. Created on: 10/09/2018.
Encoded date : UTC 2018-10-09 19:17:03
Tagged date : UTC 2018-10-09 19:17:03



So‘ngi marta tahrirlandi: Dos (2018-12-06 23:44), Jami tahrirlangan 3 marta
Profil ShX

XVII

Jins:
Ko‘rsatilmagan
Staj:
8 oy 11 kun
Xabarlar:
118

Qayerdan: Surkhandarya

Taqiq:

ип адресизни езинг менда кучирмаяпти

Mavzu yaratish 07-Noy-2018 22:30 (23 soat o‘tgach)

Iqitibos

Profil ShX

Dos ®

Jins:
Ko‘rsatilmagan
Staj:
1 oy 30 kun
Xabarlar:
8
Taqiq:

43 qismigacha qo'shildi torrent faylini qayta yuklang

Mavzu yaratish 21-Noy-2018 21:31 (13 kun o‘tgach)

Iqitibos

Profil ShX

BoboMUROD

Jins:
Ko‘rsatilmagan
Staj:
1 yil 2 oy
Xabarlar:
14
Taqiq:

Dos ® Bugungi chiqqan 44 - bolumini ham qoying

Mavzu yaratish 27-Noy-2018 11:44 (5 kun o‘tgach)

Iqitibos

Profil ShX

Кай

Jins:
Ko‘rsatilmagan
Staj:
10 oy 13 kun
Xabarlar:
2
Taqiq:

dostup berilar yuklab olaylik

Mavzu yaratish 04-Dek-2018 13:56 (7 kun o‘tgach)

Iqitibos

Profil ShX

Кай

Jins:
Ko‘rsatilmagan
Staj:
10 oy 13 kun
Xabarlar:
2
Taqiq:

sidr yoq

Mavzu yaratish 04-Dek-2018 13:57 (1 daqiqa o‘tgach)

Iqitibos

Profil ShX

Dos ®

Jins:
Ko‘rsatilmagan
Staj:
1 oy 30 kun
Xabarlar:
8
Taqiq:

44-45 qismlar qo'shildi

Mavzu yaratish 06-Dek-2018 23:44 (2 kun 9 soat o‘tgach)

Iqitibos

Profil ShX

alibobo2450

Jins:
Yigit
Staj:
6 oy 14 kun
Xabarlar:
10

Qayerdan: Andijon

Taqiq:

693644-45 qismlar qo'shildi
qoshkaniz bilan yuklab olalmayapmiz!!!!

Mavzu yaratish 07-Dek-2018 21:57 (22 soat o‘tgach)

Iqitibos

Profil ShX

Dos ®

Jins:
Ko‘rsatilmagan
Staj:
1 oy 30 kun
Xabarlar:
8
Taqiq:

men kuproq tunda razdachaga quyaman

Mavzu yaratish 09-Dek-2018 00:54 (1 kun 2 soat o‘tgach)

Iqitibos

Profil ShX

XVII

Jins:
Ko‘rsatilmagan
Staj:
8 oy 11 kun
Xabarlar:
118

Qayerdan: Surkhandarya

Taqiq:

Dos, бугун янги серияси чикади иложи булса ушбу серияни хам кушиб куйинг эртага

Mavzu yaratish Kecha 19:35 (1 kun 18 soat o‘tgach)

Iqitibos

Profil ShX
Xabarlarni ko‘rsatish:    

Hozirgi vaqt: 11-Dek 03:54

Vaqtlar farqi: UTC + 5



Siz mavzu yaratishingiz mumkin emas
Siz xabarlarga javob qaytarishingiz mumkin emas
Siz o‘z xabarlaringizni tahrirlashingiz mumkin emas
Siz o‘z xabarlaringizni o‘chirishingiz mumkin emas
Siz so‘rovlarda ovoz berishingiz mumkin emas
Siz xabalarga fayllarni biriktirishingiz mumkin emas
Siz fayllarni ko‘chirishingiz mumkin emas