˂
˃
Tarqatmalar statistikasi
Ko‘chiraman: [ 2 ]
Ko‘chirmoqdaman: [ 17 ]
Ko‘chirib bo‘ldim: [ 5 ]
 
     
 
 

Dj.Max ®

Jins:
Yigit
Staj:
5 oy 23 kun
Xabarlar:
23

Qayerdan: Farg'ona

Taqiq:


Chuqur | Çukur | Яма
-- Chiqqan yili: 2017 - 2018
Davlat: Turkiya
Janr: Jangovor, triller, drama, kriminal, detektiv
Davomiyligi: 02:09:53 X 33
Tarjima: [Sevimli TV] telekanali dublyaji-Rejissyor: Sinan O'zturk / O'zgur Sevimli--Rollarda: Aras Bulut Iynemli, Dilan Chichek Deniz, Erkan Kesal, Perihan Savash, Erkan Kolchak Ko'stendil, O'ner Erkan, Riza Kocao'g'lu, Nebil Sayin, Kubilay Aka--Tavsif: Yoshgina Yamach Kochovali Sena bilan ko'chada uchrashib, tanishib qolishgach, 3 kun ichida Parijda turmush qurishadi. Xuddi shu hafta Qahramon Kochovali Vartolli odamlari tomonidan o'ldiriladi va otasi Idris Kochovalining oilasi parokanda bo'ladi. Yamachning onasi Sulton Kochovali bo'lib, Yamachning oldiga Parijga borib Vartoludan o'ch olish uchun Yamachni uyga qaytaradi.-- -Sifat: WEBRip yuv420p
Format: AVI
Video: H264, 1280x720 (16:9), 1067 kbps, 25 fps
Audio: Uzbek / AC3 / 2.0 / 48 kHz / 128 kbps / [Sevimli TV]-

Media Info

General
General
Complete name                  : D:\CHUQUR\Chuqur - 01.avi
Format                         : AVI
Format/Info                    : Audio Video Interleave
Format profile                 : OpenDML
File size                      : 1.09 GiB
Duration                       : 2 h 9 min
Overall bit rate               : 1 209 kb/s
Writing application            : Lavf54.63.104
Video
ID                             : 0
Format                         : AVC
Format/Info                    : Advanced Video Codec
Format profile                 : Main@L3.1
Format settings, CABAC         : Yes
Format settings, RefFrames     : 1 frame
Codec ID                       : H264
Duration                       : 2 h 9 min
Bit rate                       : 1 072 kb/s
Width                          : 1 280 pixels
Height                         : 720 pixels
Display aspect ratio           : 16:9
Frame rate mode                : Variable
Frame rate                     : 25.000 FPS
Color space                    : YUV
Chroma subsampling             : 4:2:0
Bit depth                      : 8 bits
Scan type                      : Progressive
Bits/(Pixel*Frame)             : 0.047
Stream size                    : 988 MiB (88%)
Writing library                : x264 core 129
Encoding settings              : cabac=1 / ref=1 / deblock=1:0:0 / analyse=0x1:0x131 / me=dia / subme=2 / psy=1 / psy_rd=1.00:0.00 / mixed_ref=0 / me_range=16 / chroma_me=1 / trellis=0 / 8x8dct=0 / cqm=0 / deadzone=21,11 / fast_pskip=1 / chroma_qp_offset=0 / threads=8 / lookahead_threads=1 / sliced_threads=0 / nr=0 / decimate=1 / interlaced=0 / bluray_compat=0 / constrained_intra=0 / bframes=0 / weightp=2 / keyint=250 / keyint_min=25 / scenecut=40 / intra_refresh=0 / rc_lookahead=40 / rc=abr / mbtree=1 / bitrate=1072 / ratetol=1.0 / qcomp=0.60 / qpmin=10 / qpmax=51 / qpstep=4 / ip_ratio=1.41 / aq=1:1.00
Audio
ID                             : 1
Format                         : AC-3
Format/Info                    : Audio Coding 3
Format settings, Endianness    : Big
Codec ID                       : 2000
Duration                       : 2 h 9 min
Bit rate mode                  : Constant
Bit rate                       : 128 kb/s
Channel(s)                     : 2 channels
Channel positions              : Front: L R
Sampling rate                  : 48.0 kHz
Frame rate                     : 31.250 FPS (1536 SPF)
Bit depth                      : 16 bits
Compression mode               : Lossy
Stream size                    : 118 MiB (11%)
Alignment                      : Aligned on interleaves
Interleave, duration           : 32  ms (0.80 video frame)
Service kind                   : Complete Main
- © Template by Dj.Max


So‘ngi marta tahrirlandi: Dj.Max (2018-11-29 18:20), Jami tahrirlangan 24 marta
Profil ShX

XVII

Jins:
Ko‘rsatilmagan
Staj:
8 oy 11 kun
Xabarlar:
118

Qayerdan: Surkhandarya

Taqiq:

malumotlar yoqmı?

Mavzu yaratish 21-Iyun-2018 00:28 (1 soat 14 daqiqa o‘tgach)

Iqitibos

Profil ShX

MRLG

Jins:
Yigit
Staj:
1 yil 3 oy
Xabarlar:
526
Taqiq:

XVII, Ma'lumotlar har kuni 21:15 da Sevimli TV kanalida.

Mavzu yaratish 21-Iyun-2018 07:53 (7 soat o‘tgach)

Iqitibos

Profil ShX

UmarShoh

Jins:
Yigit
Staj:
9 oy 6 kun
Xabarlar:
371
Taqiq:

MRLG, unaqa qilmanglarda endi ag bt

Mavzu yaratish 21-Iyun-2018 11:07 (3 soat o‘tgach)

Iqitibos

Profil ShX

XVII

Jins:
Ko‘rsatilmagan
Staj:
8 oy 11 kun
Xabarlar:
118

Qayerdan: Surkhandarya

Taqiq:

MRLG, kinoni turk tilidagi audio yozuvini ham quyishni iloji bormi

Mavzu yaratish 22-Iyun-2018 16:02 (1 kun 4 soat o‘tgach)

Iqitibos

Profil ShX

Striker

Jins:
Yigit
Staj:
1 yil 3 oy
Xabarlar:
37
Taqiq:

UmarShoh, http://uztracker.me/topic-ovchilar_chuno_the_slave_...ilida-t=943.html
ga sidda turib bering iltimos
OLDINDAN RAHMAT 84% da tuxtab qoldi

Mavzu yaratish 01-Avg-2018 19:48 (1 oy 9 kun o‘tgach)

Iqitibos

Profil ShX

Vampire_1987

Jins:
Ko‘rsatilmagan
Staj:
1 yil 3 oy
Xabarlar:
115
Taqiq:

Ilkhom1988, Salom Siz Kim Siz Yani Ilgari Qaysi Trekerda Relizni O'zbek tilida Reliz Qilgansiz Chuqur seryalini HD Varyantga O'tkazyabsiz O'zingizni tanishtiring-Kegin reliz vaqtinchalik bo'limga relliz qilinibdi Media info da ham Tex daniyda xam Xatolar Bor Bu O'zi O'zbek tilida Yaxshi Ovoz yo'lakchalariga ega relizmi Shu Savolarga Jovob bering va Kamchiliklarni Garchan Vaqtinchalik bo'limda Bo'lsa ham To'g'irlab Qoying !

Mavzu yaratish 01-Avg-2018 23:17 (3 soat o‘tgach)

Iqitibos

Profil ShX

Dj.Max ®

Jins:
Yigit
Staj:
5 oy 23 kun
Xabarlar:
23

Qayerdan: Farg'ona

Taqiq:

Serialni ko'chirib olganlardan iltimosim bor.
Vampire_1987ga ovoz yo'lakchasi qanday mos tushgani haqidagi fikringizni bildirib o'tsangiz.

Mavzu yaratish 09-Avg-2018 13:15 (7 kun o‘tgach)

Iqitibos

Profil ShX

Dj.Max ®

Jins:
Yigit
Staj:
5 oy 23 kun
Xabarlar:
23

Qayerdan: Farg'ona

Taqiq:

Torrent faylni yangilaymiz. 11-16-qismlar qo'shildi...

Mavzu yaratish 25-Sen-2018 13:31 (1 oy 16 kun o‘tgach)

Iqitibos

Profil ShX

Dj.Max ®

Jins:
Yigit
Staj:
5 oy 23 kun
Xabarlar:
23

Qayerdan: Farg'ona

Taqiq:

TORRENT FAYLNI YANGIDAN KO'CHIRIB OLING.
CHUQUR SERIALINING 17-20-QISMLARI HAM QO'SHILDI!

Mavzu yaratish 05-Okt-2018 10:41 (9 kun o‘tgach)

Iqitibos

Profil ShX

Dj.Max ®

Jins:
Yigit
Staj:
5 oy 23 kun
Xabarlar:
23

Qayerdan: Farg'ona

Taqiq:

TORRENT FAYLNI YANGIDAN KO'CHIRIB OLING. CHUQUR SERIALINING 21-25-QISMLARI HAM QO'SHILDI!

Mavzu yaratish 28-Okt-2018 18:53 (23 kun o‘tgach)

Iqitibos

Profil ShX

yunusovjamshid

Jins:
Yigit
Staj:
1 oy 9 kun
Xabarlar:
29

Qayerdan: Toshkent

Taqiq:

дай скорость плизз

Mavzu yaratish 29-Noy-2018 10:23 (1 oy o‘tgach)

Iqitibos

Profil ShX

Dj.Max ®

Jins:
Yigit
Staj:
5 oy 23 kun
Xabarlar:
23

Qayerdan: Farg'ona

Taqiq:

TORRENT FAYLNI YANGIDAN KO'CHIRIB OLING. CHUQUR SERIALINING 26-30-QISMLARI HAM QO'SHILDI!

Mavzu yaratish 29-Noy-2018 18:20 (7 soat o‘tgach)

Iqitibos

Profil ShX
Xabarlarni ko‘rsatish:    

Hozirgi vaqt: 11-Dek 21:48

Vaqtlar farqi: UTC + 5



Siz mavzu yaratishingiz mumkin emas
Siz xabarlarga javob qaytarishingiz mumkin emas
Siz o‘z xabarlaringizni tahrirlashingiz mumkin emas
Siz o‘z xabarlaringizni o‘chirishingiz mumkin emas
Siz so‘rovlarda ovoz berishingiz mumkin emas
Siz xabalarga fayllarni biriktirishingiz mumkin emas
Siz fayllarni ko‘chirishingiz mumkin emas