˂
˃
Tarqatmalar statistikasi
Ko‘chiraman: [ 1 ]
Ko‘chirmoqdaman: [ 3 ]
Ko‘chirib bo‘ldim: [ 26 ]
 
     
 
 

N.U.R.I.K.B.E.K ®

Jins:
Yigit
Staj:
1 yil 1 oy
Xabarlar:
344

Qayerdan: Jizzax. Paxtakor

Taqiq:

--Dahma Talonchisi | Tomb Raider: Лара Крофт | Tomb Raider
-- Chiqqan yili: 2018
Davlat: Buyuk Britaniya, AQSH.
Janr: Hayoliy, Jangari, Sarguzasht.
Davomiyligi: 01:57:49
Tarjima: Professional
Tarjima #1: Professional (Yoshlar) O'zbek Tilida
Tarjima #2: Professional (litsenziya) Rus Tilida-- Rejissyor: Roar Utxayr-- Rollarda: Alisiya Vikander, Dominik Uast, Uolton Goggins, Daniel Vu, Kristin Skott Toms, Derek Djekobi, Aleksandr Villaume, Tamer Bardjag, Edrian Kollinz, Kinen Errison.-- Tavsif: Lara Croft, o'smirlik davrida juda mustaqil qizi yo'qolib ketgan eksantrik adventurerning izlovchisi, Endi u voyaga yetgan yoshi yigirma birda edi, Sharqiy London shahrining olomon ko'chalarini velosipedda kezib xat tashish orqali hayotini maqsadsiz qilib yashamoqda, O'z yo'lini o'zi yo'lga qo'yishga qaror qildi, u otasining global imperiyasining rahbarligini o'z zimmasiga olishni g'oyani qat'iyan rad etganidek, u haqiqatan ham ketganini aytdi. bu haqiqat bilan kelishib, ettita yillik foydasiz qidiruvdan keyin yashashi kerak, Lara o'zining sirli yo'qolib qolishining sabablarini qanday hal qilishini tushunmaydi.- Videoning sifati: BDRip-HEVC 1080p
Video format: MKV-- Video: HVC1 1920x802 23.976fps
Audio: MP3 48000Hz stereo 192kbps O'zbek Til
Audio 2: Dolby AC3 48000Hz stereo 192kbps Rus Tili
Audio 3: AAC 48000Hz 6ch Eng Tili--

Media Info

General
Format : Matroska
Format version : Version 4 / Version 2
File size : 1.96 GiB
Duration : 1h 57mn
Overall bit rate : 2 382 Kbps
Video
ID : 1
Format : HEVC
Format/Info : High Efficiency Video Coding
Format profile : Main@L4@Main
Codec ID : V_MPEGH/ISO/HEVC
Width : 1 920 pixels
Height : 802 pixels
Display aspect ratio : 2.40:1
Frame rate mode : Variable
Original frame rate : 23.976 fps
Color space : YUV
Chroma subsampling : 4:2:0
Bit depth : 8 bits
Title : Tomb.Raider.2018.1080p.WEB-DL.DD5.1.H264-FGT
Writing library : x265 2.5+27-0e168bdeb48b:[Linux][GCC 6.4.0][64 bit] 8bit+10bit+12bit
Language : English
Default : Yes
Forced : No
Audio #1
ID : 2
Format : MPEG Audio
Format version : Version 1
Format profile : Layer 3
Mode : Joint stereo
Mode extension : MS Stereo
Codec ID : A_MPEG/L3
Codec ID/Hint : MP3
Duration : 1h 57mn
Bit rate mode : Constant
Bit rate : 192 Kbps
Channel(s) : 2 channels
Sampling rate : 48.0 KHz
Compression mode : Lossy
Delay relative to video : -42ms
Stream size : 162 MiB (8%)
Title : O'zbek Tili
Writing library : LAME3.99.5
Language : Uzbek
Default : Yes
Forced : No
Audio #2
ID : 3
Format : AC-3
Format/Info : Audio Coding 3
Mode extension : CM (complete main)
Format settings, Endianness : Big
Codec ID : A_AC3
Duration : 1h 57mn
Bit rate mode : Constant
Bit rate : 192 Kbps
Channel(s) : 2 channels
Channel positions : Front: L R
Sampling rate : 48.0 KHz
Compression mode : Lossy
Delay relative to video : -42ms
Stream size : 162 MiB (8%)
Title : Rus Tili
Language : Russian
Default : No
Forced : No
Audio #3
ID : 4
Format : AAC
Format/Info : Advanced Audio Codec
Format profile : LC
Codec ID : A_AAC
Duration : 1h 57mn
Channel(s) : 6 channels
Channel positions : Front: L C R, Side: L R, LFE
Sampling rate : 48.0 KHz
Compression mode : Lossy
Delay relative to video : -42ms
Title : Eng Tili
Language : English
Default : No
Forced : No
LAVHALAR
Profil ShX
Xabarlarni ko‘rsatish:    

Hozirgi vaqt: 17-Dek 11:02

Vaqtlar farqi: UTC + 5



Siz mavzu yaratishingiz mumkin emas
Siz xabarlarga javob qaytarishingiz mumkin emas
Siz o‘z xabarlaringizni tahrirlashingiz mumkin emas
Siz o‘z xabarlaringizni o‘chirishingiz mumkin emas
Siz so‘rovlarda ovoz berishingiz mumkin emas
Siz xabalarga fayllarni biriktirishingiz mumkin emas
Siz fayllarni ko‘chirishingiz mumkin emas