˂
˃
Tarqatmalar statistikasi
Ko‘chirmoqdaman: [ 6 ]
 
     
 
 

Unofficial ®

Jins:
Yigit
Staj:
8 oy 21 kun
Xabarlar:
446

Qayerdan: Nukus

Taqiq:

Dimitriy Lavrik | WordPress bo'yicha kurs- -Chiqqan yili: 2017
Avtor (Rejissyor): Dimitriy Lavrik
Janr: WordPress, CMS, PHP
Davomiyligi: 16:36:58
Sifat: PCRec
Video: AVC/H.264, 1680x1048, ~422 Kbps
Audio: AAC, 2 ch, 126 Kbps-Tavsif:
Kodlash daromadini oshirish uchun CMS kerak. Lekin nima uchun wordpress?
- Past kirish chegarasi
- Juda ommabop
- Eng yaxshi hujjat
- Ommaviy tayyor echimlar
Ha, ko'pincha WordPress saytlari yomon saytlarga teng. Biroq, bu WordPress emas, balki aybdor bo'lgan, lekin PHP asoslari va tartibini bilmagan holda u bilan ishlaydiganlar.--

Media Info

General
Format : MPEG-4
Format profile : Base Media / Version 2
Codec ID : mp42 (isom/mp42)
File size : 642 MiB
Duration : 2 h 42 min
Overall bit rate mode : Variable
Overall bit rate : 551 kb/s
Encoded date : UTC 2017-09-26 19:55:42
Tagged date : UTC 2017-09-26 19:55:42
Video
ID : 1
Format : AVC
Format/Info : Advanced Video Codec
Format profile : Baseline@L4
Format settings, CABAC : No
Format settings, ReFrames : 3 frames
Codec ID : avc1
Codec ID/Info : Advanced Video Coding
Duration : 2 h 42 min
Source duration : 2 h 42 min
Bit rate : 422 kb/s
Width : 1 680 pixels
Height : 1 048 pixels
Display aspect ratio : 16:10
Frame rate mode : Variable
Frame rate : 30.000 FPS
Minimum frame rate : 30.000 FPS
Maximum frame rate : 30.030 FPS
Standard : NTSC
Color space : YUV
Chroma subsampling : 4:2:0
Bit depth : 8 bits
Scan type : Progressive
Bits/(Pixel*Frame) : 0.008
Stream size : 492 MiB (77%)
Source stream size : 492 MiB (77%)
Language : English
Encoded date : UTC 2017-09-26 19:55:42
Tagged date : UTC 2017-09-26 19:55:42
Color range : Limited
mdhd_Duration : 9772066
Audio
ID : 2
Format : AAC
Format/Info : Advanced Audio Codec
Format profile : LC
Codec ID : 40
Duration : 2 h 42 min
Source duration : 2 h 42 min
Bit rate mode : Variable
Bit rate : 126 kb/s
Maximum bit rate : 174 kb/s
Channel(s) : 2 channels
Channel positions : Front: L R
Sampling rate : 44.1 kHz
Frame rate : 43.066 FPS (1024 spf)
Compression mode : Lossy
Stream size : 146 MiB (23%)
Source stream size : 146 MiB (23%)
Language : English
Encoded date : UTC 2017-09-26 19:55:42
Tagged date : UTC 2017-09-26 19:55:42
mdhd_Duration : 9772095
Profil ShX
Xabarlarni ko‘rsatish:    

Hozirgi vaqt: 18-Dek 01:11

Vaqtlar farqi: UTC + 5



Siz mavzu yaratishingiz mumkin emas
Siz xabarlarga javob qaytarishingiz mumkin emas
Siz o‘z xabarlaringizni tahrirlashingiz mumkin emas
Siz o‘z xabarlaringizni o‘chirishingiz mumkin emas
Siz so‘rovlarda ovoz berishingiz mumkin emas
Siz xabalarga fayllarni biriktirishingiz mumkin emas
Siz fayllarni ko‘chirishingiz mumkin emas