˂
˃
Tarqatmalar statistikasi
Ko‘chiraman
 
     
 
 

Frozen ®

Jins:
Yigit
Staj:
1 yil 3 oy
Xabarlar:
58

Qayerdan: Toshkent, Navoi

Taqiq:

- Dengiz jangi / Battleship«Yer uchun kurash suvda boshlandi!» -Davlat: AQSH
Janr: Fantastika, Jangari, Sarguzasht
Chiqqan yili: 2012
Davomiyligi: 02:11:14--Tarjima: Professional (dublyaj qilingan)
Tarjima haqida qo'shimcha ma'lumot: M-TV-Rejissiyor: Peter Berg-Rollarda: Лиам Нисон, Тейлор Китч, Александр Скарсгард, Бруклин Декер, Рианна, Джесси Племонс, Джон Белл, Питер МакНикол, Таданобу Асано, Джошуа Пенс
Описание: Мы посылаем сигналы в космос и ждем ответа. Но уверены ли мы, что хотим его получить? Что если пришельцы потенциально опасны? В 2009 году на конференции в Вашингтоне астронавт Эдгар Митчелл, побывавший на Луне, сделал сенсационное заявление о существовании внеземной жизни. Теперь мы знаем, контакт не просто возможен, он неизбежен!-Videoning sifati: WEB-DL
Формат видео: MKV
Video: 1920x800 (2.40:1), 59,940 fps, AVC ~6 419 kbps avg, 23.0 bit/pixel
Audio: 48 kHz, AC3 Dolby Digital, 3/2 (L,C,R,l,r) + LFE ch, ~448.00 kbps avg (English | Original)
Audio: 48 kHz, AC3 Dolby Digital, 3/2 (L,C,R,l,r) + LFE ch, ~448.00 kbps avg (Russian)
Audio: 44.1 kHz, MPEG Audio Layer 2, 3/2 (L,C,R,l,r), ~441.00 kbps avg (O'zbek tilida)
- -

MediaInfo

E:\kino\Морской бой [Battleship] (2012) BDRip-Hi10P 1080p by_F.HD.mkv
General
Unique ID : 194491998874454523393096160344526710362 (0x9251CBE4A5420FCE86E9013BC862665A)
Complete name : E:\kino\Морской бой [Battleship] (2012) BDRip-Hi10P 1080p by_F.HD.mkv
Format : Matroska
Format version : Version 4 / Version 2
File size : 4.48 GiB
Duration : 2h 3mn
Overall bit rate : 5 208 Kbps
Movie name : релиз от FREEISLAND.ORG
Encoded date : UTC 2014-01-10 13:30:05
Writing application : mkvmerge v6.2.0 ('Promised Land') built on Apr 28 2013 12:22:01
Writing library : libebml v1.3.0 + libmatroska v1.4.0
Video #1
ID : 1
Format : AVC
Format/Info : Advanced Video Codec
Format profile : High 10@L5.0
Format settings, CABAC : Yes
Format settings, ReFrames : 16 frames
Codec ID : V_MPEG4/ISO/AVC
Duration : 2h 3mn
Bit rate : 4 630 Kbps
Width : 1 920 pixels
Height : 800 pixels
Display aspect ratio : 2.40:1
Frame rate mode : Constant
Frame rate : 23.976 fps
Color space : YUV
Chroma subsampling : 4:2:0
Bit depth : 10 bits
Scan type : Progressive
Bits/(Pixel*Frame) : 0.126
Stream size : 3.90 GiB (87%)
Writing library : x264 core 133 r2334+704+50 a7549b7 tMod [10-bit@all X86_64]
Encoding settings : cabac=1 / ref=16 / deblock=1:-2:-1 / analyse=0x3:0x133 / me=umh / subme=11 / psy=1 / fade_compensate=0.00 / psy_rd=1.00:0.14 / mixed_ref=1 / me_range=64 / chroma_me=1 / trellis=2 / 8x8dct=1 / cqm=0 / deadzone=21,11 / fast_pskip=0 / chroma_qp_offset=-3 / threads=12 / lookahead_threads=2 / sliced_threads=0 / nr=0 / decimate=1 / interlaced=0 / bluray_compat=0 / constrained_intra=0 / fgo=0 / bframes=9 / b_pyramid=2 / b_adapt=2 / b_bias=0 / direct=3 / weightb=1 / open_gop=0 / weightp=2 / keyint=270 / keyint_min=21 / scenecut=40 / intra_refresh=0 / rc_lookahead=0 / rc=2pass / mbtree=0 / bitrate=4630 / ratetol=1.0 / qcomp=1.00 / qpmin=0 / qpmax=48 / qpstep=4 / cplxblur=20.0 / qblur=0.5 / vbv_maxrate=240000 / vbv_bufsize=240000 / nal_hrd=none / ip_ratio=1.40 / pb_ratio=1.30 / aq=4:0.86 / aq-sensitivity=13.00 / aq-factor=1.00:1.00:1.00 / aq2=1:1.10 / aq2-sensitivity=18.00 / aq2-factor=1.00:1.00:1.00 / aq3=0
Default : Yes
Forced : No
Color primaries : BT.709
Transfer characteristics : BT.709
Matrix coefficients : BT.709
Audio #2
ID : 2
Format : AC-3
Format/Info : Audio Coding 3
Mode extension : CM (complete main)
Format settings, Endianness : Big
Codec ID : A_AC3
Duration : 2h 3mn
Bit rate mode : Constant
Bit rate : 448 Kbps
Channel(s) : 6 channels
Channel positions : Front: L C R, Side: L R, LFE
Sampling rate : 48.0 KHz
Bit depth : 16 bits
Compression mode : Lossy
Stream size : 395 MiB (9%)
Title : Rus tilida (Dublyaj)
Language : Russian
Default : Yes
Forced : No
Audio #3
ID : 3
Format : MPEG Audio
Format version : Version 1
Format profile : Layer 3
Mode : Joint stereo
Mode extension : MS Stereo
Codec ID : A_MPEG/L3
Codec ID/Hint : MP3
Duration : 2h 3mn
Bit rate mode : Constant
Bit rate : 128 Kbps
Channel(s) : 2 channels
Sampling rate : 44.1 KHz
Compression mode : Lossy
Stream size : 113 MiB (2%)
Title : O`zbek tilida
Writing library : LAME3.98.2
Language : Uzbek
Default : No
Forced : No
Text #4
ID : 4
Format : UTF-8
Codec ID : S_TEXT/UTF8
Codec ID/Info : UTF-8 Plain Text
Title : на места без перевода
Language : Russian
Default : Yes
Forced : Yes
Text #5
ID : 5
Format : UTF-8
Codec ID : S_TEXT/UTF8
Codec ID/Info : UTF-8 Plain Text
Title : FULL
Language : Russian
Default : No
Forced : No
Menu
00:00:00.000 : :01
00:09:24.105 : :02
00:15:04.320 : :03
00:23:08.679 : :04
00:29:44.032 : :05
00:36:26.810 : :06
00:42:01.269 : :07
00:49:09.655 : :08
00:56:08.323 : :09
01:00:02.224 : :10
01:09:50.520 : :11
01:15:26.731 : :12
01:20:56.935 : :13
01:29:47.424 : :14
01:37:14.412 : :15
01:43:32.248 : :16
01:49:38.572 : :17
01:56:20.682 : :18
02:00:41.359 : :19
Profil ShX

nurillo123

Jins:
Ko‘rsatilmagan
Staj:
1 yil 1 oy
Xabarlar:
16
Taqiq:

Frozen, ne ohirgacha kochirmayabti

Mavzu yaratish 08-Dek-2017 19:25 (6 kun o‘tgach)

Iqitibos

Profil ShX
Xabarlarni ko‘rsatish:    

Hozirgi vaqt: 11-Dek 20:14

Vaqtlar farqi: UTC + 5



Siz mavzu yaratishingiz mumkin emas
Siz xabarlarga javob qaytarishingiz mumkin emas
Siz o‘z xabarlaringizni tahrirlashingiz mumkin emas
Siz o‘z xabarlaringizni o‘chirishingiz mumkin emas
Siz so‘rovlarda ovoz berishingiz mumkin emas
Siz xabalarga fayllarni biriktirishingiz mumkin emas
Siz fayllarni ko‘chirishingiz mumkin emas