Vampire_1987 ®

Jins:
Ko‘rsatilmagan
Staj:
1 yil
Xabarlar:
114
Taqiq:

--Dengiz jangi | Battleship-- Davlat: AQSH
Janr: Fantastika, jangari, triller, sarguzasht, urushga
Chiqqan yili: 2012
Davomiyligi: 02:03:13
Tarjima: Professional (dublyaj qilingan) (O'zbek Tilida)
Mualif Izohi:Filim Shu Trekerdan Ko'chirib Olingan Va Kichikiroq Hajmda Qayta Reliz Qilindi--Rejissiyor: Pter Berg / Peter Berg--Rollarda: Teylor Kitch, Aleksandr Skarsgard, Rianna, Bruklin Deker, Tadanobu Asano, Liam Nison, Djon Tui, Gregori D. Gedson, Djessi Plemons, Xamish Linkleyter--Tavsif: Biz kosmosga signallarni jo'natamiz va javob kutamiz. Lekin, biz javobni qabul qilishni xohlayotganimizga aminmizmi? Agar o'zga sayyoraliklar o'ta xavfli bo'lsa nima bo'ladi? 2009-yilda Vashingtonda bo'lib o'tgan konferentsiyada Oyga tashrif buyurgan kosmonavt Edgar Mitchell yerdan tashqarida hayotning borligi haqida shov-shuvli bayonot berdi. Endi biz bilamizki, aloqa faqatgina mumkin emas, bu muqarrar!-- --Sifat: HDRip
Format: AVI
Video: XviD 688x288 23.976fps 716kbps
Audio: MP3 44100Hz stereo 124kbps--

MediaInfo

General
Format : AVI
Format/Info : Audio Video Interleave
File size : 752 MiB
Duration : 2 h 3 min
Overall bit rate mode : Variable
Overall bit rate : 853 kb/s
Writing application : MEncoder r33883
Writing library : MPlayer
Video
ID : 0
Format : MPEG-4 Visual
Format profile : Simple@L3
Format settings, BVOP : No
Format settings, QPel : No
Format settings, GMC : No warppoints
Format settings, Matrix : Default (H.263)
Codec ID : XVID
Codec ID/Hint : XviD
Duration : 2 h 3 min
Bit rate : 716 kb/s
Width : 688 pixels
Height : 288 pixels
Display aspect ratio : 2.40:1
Frame rate : 23.976 (24000/1001) FPS
Original frame rate : 23.976 (23976/1000) FPS
Color space : YUV
Chroma subsampling : 4:2:0
Bit depth : 8 bits
Scan type : Progressive
Compression mode : Lossy
Bits/(Pixel*Frame) : 0.151
Stream size : 631 MiB (84%)
Writing library : XviD 63
Audio
ID : 1
Format : MPEG Audio
Format version : Version 1
Format profile : Layer 3
Format settings : Joint stereo / MS Stereo
Codec ID : 55
Codec ID/Hint : MP3
Duration : 2 h 3 min
Bit rate mode : Variable
Bit rate : 125 kb/s
Channel(s) : 2 channels
Sampling rate : 44.1 kHz
Compression mode : Lossy
Stream size : 110 MiB (15%)
Alignment : Aligned on interleaves
Interleave, duration : 26 ms (0.63 video frame)
Interleave, preload duration : 365 ms
Writing library : LAME3.98.4
Profil ShX

MRLG

Jins:
Yigit
Staj:
1 yil 1 oy
Xabarlar:
470
Taqiq:

Tavsiflarni o'zbekchaga tarjima qiling.

Mavzu yaratish 23-Fev-2018 13:37 (2 soat 56 daqiqa o‘tgach)

Iqitibos

Profil ShX

Vampire_1987 ®

Jins:
Ko‘rsatilmagan
Staj:
1 yil
Xabarlar:
114
Taqiq:

1287Tavsiflarni o'zbekchaga tarjima qiling.
Tarjima Qilaolmayman Hoqlasangiz O'zingiz Tarjima Qilib O'zgartirib Boring Menda 110 ta Kino Yig'ildi Xozircha Ammo Bitta Bittadan Reliz Qilaman Qachon Shu Kinoni Tarqatib Bo'lgandan Kegin Keyingi Kino Reliz Qilinadi Iltimos Serverga Yuklab Boring )

Mavzu yaratish 23-Fev-2018 13:44 (7 daqiqa o‘tgach)

Iqitibos

Profil ShX

MRLG

Jins:
Yigit
Staj:
1 yil 1 oy
Xabarlar:
470
Taqiq:

Vampire_1987, Bu yerda men hohlashim emas, film joylashni qonun-qoidalariga rioya qilgan holda reliz qilinadi. Rus tilini bilmasangiz, buning qiyin joyi yo'q. Google Translate orqali tarjima qilib olasiz keyin tarjimada hatolik bo'lsa (Jumlalar o'rni o'zgarsa, yoki mantiqan noto'g'ri bo'lsa) to'g'rilab chiqasiz.
Iltimosingizga kelsak, menda server yo'q. Trekerni serveri ham endilikda yo'q. Faqat o'zingiz tarqatishingiz mumkin.

Mavzu yaratish 23-Fev-2018 16:12 (2 soat 27 daqiqa o‘tgach)

Iqitibos

Profil ShX

vuelta

Jins:
Yigit
Staj:
1 yil 1 oy
Xabarlar:
295
Taqiq:

tezlik tezlik

Mavzu yaratish 24-Fev-2018 14:47 (22 soat o‘tgach)

Iqitibos

Profil ShX

N.U.R.I.K.B.E.K

Jins:
Yigit
Staj:
10 oy 16 kun
Xabarlar:
231

Qayerdan: Jizzax. Paxtakor

Taqiq:

Vampire_1987, tezli vasheku 2-kundan beri 25% bupti

Mavzu yaratish 24-Fev-2018 15:42 (54 daqiqa o‘tgach)

Iqitibos

Profil ShX

Vampire_1987 ®

Jins:
Ko‘rsatilmagan
Staj:
1 yil
Xabarlar:
114
Taqiq:

N.U.R.I.K.B.E.K, Kochirib Bo'lgach Razdachada Qoling )

Mavzu yaratish 28-Fev-2018 18:15 (4 kun o‘tgach)

Iqitibos

Profil ShX
Xabarlarni ko‘rsatish:    

Hozirgi vaqt: 23-Sen 11:57

Vaqtlar farqi: UTC + 5



Siz mavzu yaratishingiz mumkin emas
Siz xabarlarga javob qaytarishingiz mumkin emas
Siz o‘z xabarlaringizni tahrirlashingiz mumkin emas
Siz o‘z xabarlaringizni o‘chirishingiz mumkin emas
Siz so‘rovlarda ovoz berishingiz mumkin emas
Siz xabalarga fayllarni biriktirishingiz mumkin emas
Siz fayllarni ko‘chirishingiz mumkin emas