˂
˃
 

Gr@nd ®

Jins:
Yigit
Staj:
1 yil 2 oy
Xabarlar:
158

Qayerdan: Jizzax Forish

Taqiq:

-Dizayn Shou 2017-yil- -Chiqqan yili: 2017
Davlat: O`zbekiston-Janr: Kulguli
Davomiyligi: 02:50:35-Rejissyor: Dizayn jamoasi va Boshqalar-Tavsif: Dizayn Shou 2017-yilgi konserti oldingilariga qaraganda juda qiziqarli va judaxam kulguli bo'lgan, XAMMAGA ko'rishni tafsiya qilaman-Videoning sifati: WEBRip 720p
Video format: MP4-Video: AVC, 1280x720, 25fps, 1 560 Kbps
Audio: AAC, 44100Hz, 2 channel, 1411kbps
-

Media Info

General
Format : MPEG-4
Format profile : Base Media / Version 2
Codec ID : mp42
File size : 2.02 GiB
Duration : 2h 50mn
Overall bit rate mode : Variable
Overall bit rate : 1 692 Kbps
Encoded date : UTC 2018-05-10 12:45:04
Tagged date : UTC 2018-05-10 12:45:04
gsst : 0
gstd : 10234840
Video
ID : 1
Format : AVC
Format/Info : Advanced Video Codec
Format profile : Main@L3.1
Format settings, CABAC : Yes
Format settings, ReFrames : 3 frames
Codec ID : avc1
Codec ID/Info : Advanced Video Coding
Duration : 2h 50mn
Bit rate mode : Variable
Bit rate : 1 560 Kbps
Width : 1 280 pixels
Height : 720 pixels
Display aspect ratio : 16:9
Frame rate mode : Constant
Frame rate : 25.000 fps
Color space : YUV
Chroma subsampling : 4:2:0
Bit depth : 8 bits
Scan type : Progressive
Bits/(Pixel*Frame) : 0.068
Stream size : 1.86 GiB (92%)
Title : ISO Media file produced by Google Inc. Created on: 05/10/2018.
Encoded date : UTC 2018-05-10 12:45:04
Tagged date : UTC 2018-05-10 12:45:04
Color primaries : BT.709-5, BT.1361, IEC 61966-2-4, SMPTE RP177
Transfer characteristics : BT.709-5, BT.1361
Matrix coefficients : BT.709-5, BT.1361, IEC 61966-2-4 709, SMPTE RP177
Audio
ID : 2
Format : AAC
Format/Info : Advanced Audio Codec
Format profile : LC
Codec ID : 40
Duration : 2h 50mn
Bit rate mode : Variable
Bit rate : 128 Kbps
Channel(s) : 2 channels
Channel positions : Front: L R
Sampling rate : 44.1 KHz
Compression mode : Lossy
Delay relative to video : -40ms
Stream size : 156 MiB (8%)
Title : ISO Media file produced by Google Inc. Created on: 05/10/2018.
Encoded date : UTC 2018-05-10 12:45:04
Tagged date : UTC 2018-05-10 12:45:04
-


So‘ngi marta tahrirlandi: Gr@nd (2018-05-11 23:49), Jami tahrirlangan 2 marta
Profil ShX

UmarShoh

Jins:
Yigit
Staj:
9 oy 5 kun
Xabarlar:
371
Taqiq:

kotta raxmat oka lekin
Videoning sifati: BDRip
bu bdrip emas!

Mavzu yaratish 11-May-2018 23:37 (1 daqiqa o‘tgach)

Iqitibos

Profil ShX

Soft-Release

Jins:
Yigit
Staj:
8 oy 27 kun
Xabarlar:
737

Qayerdan: Kattakurgan

Taqiq:

Gr@nd, Assalom aleykum Xusan aka Xayrli Kech! bu WEBDL-Rip 720p bo'lishi kerak akajon! Ishlariz yaxshimi charchamayabsizmi sog'ligiz yaxshimi tinchmisiz akajon


So‘ngi marta tahrirlandi: Soft-Release (2018-05-11 23:49), Jami tahrirlangan 1 marta

Mavzu yaratish 11-May-2018 23:41 (3 daqiqa o‘tgach)

Iqitibos

Profil ShX

Soft-Release

Jins:
Yigit
Staj:
8 oy 27 kun
Xabarlar:
737

Qayerdan: Kattakurgan

Taqiq:

Gr@nd, BDRip sifat 1920x800 yoki 1920x1080 MKV sifatlilar BDRip ya'ni BluRayRemux deyiladi!

Mavzu yaratish 11-May-2018 23:43 (2 daqiqa o‘tgach)

Iqitibos

Profil ShX

Gr@nd ®

Jins:
Yigit
Staj:
1 yil 2 oy
Xabarlar:
158

Qayerdan: Jizzax Forish

Taqiq:

Magnitka yangilandi

Mavzu yaratish 11-May-2018 23:47 (4 daqiqa o‘tgach)

Iqitibos

Profil ShX

AxeL

Jins:
Yigit
Staj:
8 oy 24 kun
Xabarlar:
610

Qayerdan: Gronland, Norway

Taqiq:

Gr@nd, Katta raxmat ajoyib reliz qilibsiz sizdan har doim ajoyib relizlar yuklangan +1 LIKE

Mavzu yaratish 12-May-2018 00:20 (32 daqiqa o‘tgach)

Iqitibos

Profil ShX

AxeL

Jins:
Yigit
Staj:
8 oy 24 kun
Xabarlar:
610

Qayerdan: Gronland, Norway

Taqiq:

Gr@nd, Katta raxmat ajoyib reliz qilibsiz sizdan har doim ajoyib relizlar yuklangan +1 LIKE

Mavzu yaratish 12-May-2018 00:20 (17 soniya o‘tgach)

Iqitibos

Profil ShX

88888888

Jins:
Ko‘rsatilmagan
Staj:
6 oy 30 kun
Xabarlar:
1
Taqiq:

Shukonsertni xamma maxtagandi nixoyat chiqiptide Gr@nd Sizga Kattakon raxmat

Mavzu yaratish 12-May-2018 08:45 (8 soat o‘tgach)

Iqitibos

Profil ShX

logan7272

Jins:
Yigit
Staj:
8 oy 8 kun
Xabarlar:
9

Qayerdan: Namangan

Taqiq:

qaydan topdinglar bu konsertni

Mavzu yaratish 12-May-2018 09:24 (39 daqiqa o‘tgach)

Iqitibos

Profil ShX

MRLG

Jins:
Yigit
Staj:
1 yil 3 oy
Xabarlar:
526
Taqiq:

Gr@nd, Tarqatma uchun rahmat. Kamchiliklarini to'g'riladim. Lentaga qo'ydim.

Mavzu yaratish 12-May-2018 13:27 (4 soat o‘tgach)

Iqitibos

Profil ShX

UmarShoh

Jins:
Yigit
Staj:
9 oy 5 kun
Xabarlar:
371
Taqiq:

Vampire_1987, Teran ildizlar ! bi

MRLGdan ogohlantirish


6.2. Mavzudan tashqari izohlar qoldirish taqiqlanadi (offtop).

Mavzu yaratish 12-May-2018 13:49 (21 daqiqa o‘tgach)

Iqitibos

Profil ShX

Gr@nd ®

Jins:
Yigit
Staj:
1 yil 2 oy
Xabarlar:
158

Qayerdan: Jizzax Forish

Taqiq:

MRLG, Raxmat

Mavzu yaratish 12-May-2018 14:00 (11 daqiqa o‘tgach)

Iqitibos

Profil ShX

AxeL

Jins:
Yigit
Staj:
8 oy 24 kun
Xabarlar:
610

Qayerdan: Gronland, Norway

Taqiq:

Reliz uchun tashakkur.

Mavzu yaratish 12-May-2018 19:04 (5 soat o‘tgach)

Iqitibos

Profil ShX

vuelta

Jins:
Yigit
Staj:
1 yil 3 oy
Xabarlar:
300
Taqiq:

2018 mi yoki 2017 mi boshqalar 2018 qilib reklama qilayabdi)

Mavzu yaratish 12-May-2018 19:38 (33 daqiqa o‘tgach)

Iqitibos

Profil ShX

Gr@nd ®

Jins:
Yigit
Staj:
1 yil 2 oy
Xabarlar:
158

Qayerdan: Jizzax Forish

Taqiq:

vuelta, Konsert 2017 dekabrda bo'lgan ekranlarga 2018 chiqan

Mavzu yaratish 12-May-2018 20:57 (1 soat 18 daqiqa o‘tgach)

Iqitibos

Profil ShX
Xabarlarni ko‘rsatish:    

Hozirgi vaqt: 11-Dek 02:29

Vaqtlar farqi: UTC + 5



Siz mavzu yaratishingiz mumkin emas
Siz xabarlarga javob qaytarishingiz mumkin emas
Siz o‘z xabarlaringizni tahrirlashingiz mumkin emas
Siz o‘z xabarlaringizni o‘chirishingiz mumkin emas
Siz so‘rovlarda ovoz berishingiz mumkin emas
Siz xabalarga fayllarni biriktirishingiz mumkin emas
Siz fayllarni ko‘chirishingiz mumkin emas