˂
˃
Tarqatmalar statistikasi
Ko‘chirib bo‘ldim: [ 1 ]
 
     
 
 

Javohir123 ®

Jins:
Yigit
Staj:
1 yil 1 oy
Xabarlar:
48
Taqiq:

Doktor Strenj | Доктор Стрэндж / Doctor Strange
-- Davlat: AQSH
Janr: Fantastika,Xayoliy,Jangari,Sarguzasht
Chiqqan yili: 2016
Davomiyligi: 01:55:16-Tarjima: Professional (dublyaj qilingan) O'zbek tilida
Rejissiyor: Scott Derrickson-Rollarda: Benedict Cumberbatch,Tilda Swinton, Mads Mikkelsen, Chiwetel Ejiofor, Rachel McAdams, Wong, Maykl Stuhlbarg, Benjamin Benedict Benedict Cumberbatch Brett, Scott Edkins, Zara Pythian-Описание: Страшная автокатастрофа поставила крест на карьере успешного нейрохирурга Доктора Стрэнджа. Отчаявшись, он отправляется в путешествие в поисках исцеления и открывает в себе невероятные способности к трансформации пространства и времени. Теперь он - связующее звено между параллельными измерениями, а его миссия - защищать жителей Земли и противодействовать Злу, какое бы обличие оно ни принимало.-Videoning sifati: WEB-DLRip
Формат видео: MKV-Video: MPEG4 Video (H264) 1920x804 23.976fps
Audio: Dolby AC3 48000Hz 6ch 384kbps Rus
Audio: Dolby AC3 48000Hz 6ch 384kbps Eng
Audio: MP3 44100Hz stereo 320kbps Uzb -

MediaInfo

General
Unique ID : 229015629563327087029667993363593270850 (0xAC4ACE4D8DAA2C79B33BE9F58AFF9642)
Complete name :
Format : Matroska
Format version : Version 4 / Version 2
File size : 4.53 GiB
Duration : 1 h 55 min
Overall bit rate : 5 627 kb/s
Movie name : Dr.STRANGE_WEB_DL_1080p-BLUEBIRD
Encoded date : UTC 2017-07-03 08:12:47
Writing application : mkvmerge v9.2.0 ('Photograph') 32bit
Writing library : libebml v1.3.3 + libmatroska v1.4.4
Video
ID : 1
Format : AVC
Format/Info : Advanced Video Codec
Format profile : High@L4
Format settings, CABAC : Yes
Format settings, RefFrames : 5 frames
Codec ID : V_MPEG4/ISO/AVC
Duration : 1 h 55 min
Bit rate : 4 536 kb/s
Width : 1 920 pixels
Height : 804 pixels
Display aspect ratio : 2.40:1
Frame rate mode : Constant
Frame rate : 23.976 (23976/1000) FPS
Color space : YUV
Chroma subsampling : 4:2:0
Bit depth : 8 bits
Scan type : Progressive
Bits/(Pixel*Frame) : 0.123
Stream size : 3.65 GiB (81%)
Title : Dr.STRANGE_WEB_DL_1080p-BLUEBIRD
Language : English
Default : Yes
Forced : No
Color range : Limited
Color primaries : BT.709
Transfer characteristics : BT.709
Matrix coefficients : BT.709
Audio #1
ID : 2
Format : AC-3
Format/Info : Audio Coding 3
Format settings, Endianness : Big
Codec ID : A_AC3
Duration : 1 h 55 min
Bit rate mode : Constant
Bit rate : 384 kb/s
Channel(s) : 6 channels
Channel positions : Front: L C R, Side: L R, LFE
Sampling rate : 48.0 kHz
Frame rate : 31.250 FPS (1536 SPF)
Bit depth : 16 bits
Compression mode : Lossy
Stream size : 317 MiB (7%)
Title : [DUB] DD 5.1 @ 384 kbps (iTunes)
Language : Russian
Service kind : Complete Main
Default : Yes
Forced : No
Audio #2
ID : 3
Format : AC-3
Format/Info : Audio Coding 3
Format settings, Endianness : Big
Codec ID : A_AC3
Duration : 1 h 55 min
Bit rate mode : Constant
Bit rate : 384 kb/s
Channel(s) : 6 channels
Channel positions : Front: L C R, Side: L R, LFE
Sampling rate : 48.0 kHz
Frame rate : 31.250 FPS (1536 SPF)
Bit depth : 16 bits
Compression mode : Lossy
Stream size : 317 MiB (7%)
Title : [ORIGINAL] DD 5.1 @ 384 kbps (iTunes)
Language : English
Service kind : Complete Main
Default : No
Forced : No
Audio #3
ID : 4
Format : MPEG Audio
Format version : Version 1
Format profile : Layer 3
Mode : Joint stereo
Codec ID : A_MPEG/L3
Codec ID/Hint : MP3
Duration : 1 h 55 min
Bit rate mode : Constant
Bit rate : 320 kb/s
Channel(s) : 2 channels
Sampling rate : 44.1 kHz
Frame rate : 38.281 FPS (1152 SPF)
Compression mode : Lossy
Stream size : 264 MiB (6%)
Writing library : LAME3.99.5
Default : No
Forced : No


So‘ngi marta tahrirlandi: Javohir123 (2017-11-23 14:26), Jami tahrirlangan 2 marta
Profil ShX

MRLG

Jins:
Yigit
Staj:
1 yil 3 oy
Xabarlar:
523
Taqiq:

Javohir123,
[sh][/sh]
soya tegini faqat Film sarlavhasida ishlatishni maslahat beraman. Tavsiflarda ishlatmang. Tavsifni va boshqa yozuvlarni o'qishga halaqit beradi.

Mavzu yaratish 23-Okt-2017 14:15 (12 daqiqa o‘tgach)

Iqitibos

Profil ShX

Javohir123 ®

Jins:
Yigit
Staj:
1 yil 1 oy
Xabarlar:
48
Taqiq:

Kamchilik To'g'irlandi

Mavzu yaratish 23-Okt-2017 17:35 (3 soat o‘tgach)

Iqitibos

Profil ShX

RustamoFF

Jins:
Yigit
Staj:
1 yil 1 oy
Xabarlar:
8

Qayerdan: Toshkent

Taqiq:

POSTER xolasela uzb tilda

Mavzu yaratish 27-Okt-2017 00:09 (3 kun o‘tgach)

Iqitibos

Profil ShX

vuelta

Jins:
Yigit
Staj:
1 yil 3 oy
Xabarlar:
298
Taqiq:

659POSTER xolasela uzb tilda
yangi posterizni filmni qushgan muallifga yoqsa uni uzgartira oladi

Mavzu yaratish 27-Okt-2017 08:08 (7 soat o‘tgach)

Iqitibos

Profil ShX
Xabarlarni ko‘rsatish:    

Hozirgi vaqt: 18-Noy 17:08

Vaqtlar farqi: UTC + 5



Siz mavzu yaratishingiz mumkin emas
Siz xabarlarga javob qaytarishingiz mumkin emas
Siz o‘z xabarlaringizni tahrirlashingiz mumkin emas
Siz o‘z xabarlaringizni o‘chirishingiz mumkin emas
Siz so‘rovlarda ovoz berishingiz mumkin emas
Siz xabalarga fayllarni biriktirishingiz mumkin emas
Siz fayllarni ko‘chirishingiz mumkin emas