˂
˃
Tarqatmalar statistikasi
Ko‘chiraman: [ 4 ]
Ko‘chirmoqdaman: [ 6 ]
Ko‘chirib bo‘ldim: [ 42 ]
 
     
 
 

bekastar ®

Jins:
Yigit
Staj:
7 oy 27 kun
Xabarlar:
27

Qayerdan: Samarqand

Taqiq:

-Do'stim Hind - -Chiqqan yili: 2017
Davlat: O'zbekiston
Janri: Oilaviy, komediya
Davomiyligi: 01:07:13
Tarjima: Talab etilmaydi-Rejissiyor: Nusrat Abdurasulxon-Sеnariy: Nusrat Abdurasulxon
Prodyusеr: Farhod Zokirov
Tasvirchi: Umid Malikov
Bastakor: Qahramon Rashidov-Rollarda: Ulug'bek Abzalov, Zarina Nizomiddinova, Shuhrat Nuraliyev, Murod Rajabov va boshqalar-Film haqida: Ushbu kino kartinada (Dizayn) jamoasi va istedodli yosh aktyorlarimiz kulguli sahnalarni maromiga yetqazib o'ynashgan. Kinoni o'ziz ko'rib izoh qoldiring!-Sifat: WEBRip720
Format: MP4
Video kodek: MPEG4
Audio kodek: AAC
Video: H.264/AVC 1280x720 / 24.976fps / 1661 kb/s
Audio: AAC / 44100Hz stereo / 128 / Kbps

Media Info

Общее
Полное имя                               : C:\Users\БеК\Videos\Do'stim Hind (uzbek kino) l Дўстим Ҳинд (узбек кино).mp4
Формат                                   : MPEG-4
Профиль формата                          : Base Media / Version 2
Идентификатор кодека                     : mp42 (isom/mp42)
Размер файла                             : 862 Мбайт
Продолжительность                        : 1 ч. 7 м.
Режим общего битрейта                    : Переменный
Общий поток                              : 1793 Кбит/сек
Дата кодирования                         : UTC 2018-12-06 09:14:19
Дата пометки                             : UTC 2018-12-06 09:14:19
gsst                                     : 0
gstd                                     : 4032818
Видео
Идентификатор                            : 1
Формат                                   : AVC
Формат/Информация                        : Advanced Video Codec
Профиль формата                          : Main@L3.1
Параметр CABAC формата                   : Да
Параметр ReFrames формата                : 3 кадра
Идентификатор кодека                     : avc1
Идентификатор кодека/Информация          : Advanced Video Coding
Продолжительность                        : 1 ч. 7 м.
Битрейт                                  : 1661 Кбит/сек
Ширина                                   : 1280 пикселей
Высота                                   : 720 пикселей
Соотношение сторон                       : 16:9
Режим частоты кадров                     : Постоянный
Частота кадров                           : 25,000 кадров/сек
Цветовое пространство                    : YUV
Субдискретизация насыщенности            : 4:2:0
Битовая глубина                          : 8 бит
Тип развёртки                            : Прогрессивная
Бит/(Пиксели*Кадры)                      : 0.072
Размер потока                            : 799 Мбайт (93%)
Заголовок                                : ISO Media file produced by Google Inc. Created on: 12/06/2018.
Дата кодирования                         : UTC 2018-12-06 09:14:19
Дата пометки                             : UTC 2018-12-06 09:14:19
Цветовой диапазон                        : Limited
Основные цвета                           : BT.709
Характеристики трансфера                 : BT.709
Коэффициенты матрицы                     : BT.709
Аудио
Идентификатор                            : 2
Формат                                   : AAC
Формат/Информация                        : Advanced Audio Codec
Профиль формата                          : LC
Идентификатор кодека                     : 40
Продолжительность                        : 1 ч. 7 м.
Вид битрейта                             : Переменный
Битрейт                                  : 128 Кбит/сек
Каналы                                   : 2 канала
Расположение каналов                     : Front: L R
Частота                                  : 44,1 КГц
Частота кадров                           : 43,066 кадра/сек (1024 spf)
Метод сжатия                             : С потерями
Размер потока                            : 61,5 Мбайт (7%)
Заголовок                                : ISO Media file produced by Google Inc. Created on: 12/06/2018.
Язык                                     : English
Дата кодирования                         : UTC 2018-12-06 09:14:19
Дата пометки                             : UTC 2018-12-06 09:14:19
-LAVHALAR--
Profil ShX

duphaston_10

Jins:
Ko‘rsatilmagan
Staj:
4 oy 7 kun
Xabarlar:
3
Taqiq:

bachkana bazm

Mavzu yaratish 14-Dek-2018 17:36 (7 kun o‘tgach)

Iqitibos

Profil ShX
Xabarlarni ko‘rsatish:    

Hozirgi vaqt: 23-Yan 02:04

Vaqtlar farqi: UTC + 5



Siz mavzu yaratishingiz mumkin emas
Siz xabarlarga javob qaytarishingiz mumkin emas
Siz o‘z xabarlaringizni tahrirlashingiz mumkin emas
Siz o‘z xabarlaringizni o‘chirishingiz mumkin emas
Siz so‘rovlarda ovoz berishingiz mumkin emas
Siz xabalarga fayllarni biriktirishingiz mumkin emas
Siz fayllarni ko‘chirishingiz mumkin emas