Tarqatmalar statistikasi
Ko‘chiraman: [ 1 ]
 
     
 
 

BestBoy ®

Jins:
Yigit
Staj:
11 oy 15 kun
Xabarlar:
63
Taqiq:

Dovyurak Olmaxon 2 | The Nut Job 2: Nutty by Nature
-Davlat: AQSH, Kanada, Janubiy Koreya
Janr: Kulguli, sarguzasht, oilaviy
Davomiyligi: 01:20:18
Chiqqan yili: 2017
Tarjima: Professional (dublyaj qilingan) Favvora Studio-Rejissyor: Kellin Brunker
Rollarda: Uill Arnet, Ketrin Haygl, Mayya Rudolf, Jeki Chan, Izabella Moner, Peter Stormore, Bobby Kannavali-Diqqat! Namoyish etuvchi tomonidan reklama mavjud-Описание: В продолжении веселых хвостатых приключений белке Злюку и его друзьям снова нужно действовать сообща. На сей раз - чтобы спасти свой дом: мэр города задумал вырубить их парк и построить на его месте бездушные аттракционы... К счастью, у Злюка и других любителей арахиса есть план, не последняя роль в котором отведена новым друзьям наших героев - белым мышам под предводительством мудрого мистера Фэнга- -Качество: TVRip
Формат: MP4
Видео: MPEG4 Video (H264) 640x360 (29:15) 25fps 616kbps
Аудио: [O'zbekcha] AAC 44100Hz stereo 79kbps

Подробные технические данные

Format                         : MPEG-4
Format profile : Base Media
Codec ID : isom
File size : 402 MiB
Duration : 1h 20mn
Overall bit rate mode : Variable
Overall bit rate : 700 Kbps
Recorded date : 2017-09-20T11:16:52.00853
Writing application : Lavf52.93.0
Video
ID : 1
Format : AVC
Format/Info : Advanced Video Codec
Format profile : Baseline@L3.0
Format settings, CABAC : No
Format settings, ReFrames : 1 frame
Codec ID : avc1
Codec ID/Info : Advanced Video Coding
Duration : 1h 20mn
Bit rate : 610 Kbps
Width : 640 pixels
Height : 360 pixels
Display aspect ratio : 1.936
Original display aspect ratio : 1.939
Frame rate mode : Constant
Frame rate : 25.000 fps
Color space : YUV
Chroma subsampling : 4:2:0
Bit depth : 8 bits
Scan type : Progressive
Bits/(Pixel*Frame) : 0.106
Stream size : 354 MiB (88%)
Writing library : x264 core 112
Encoding settings : cabac=0 / ref=1 / deblock=1:0:0 / analyse=0x1:0x111 / me=hex / subme=7 / psy=1 / psy_rd=1.00:0.00 / mixed_ref=0 / me_range=16 / chroma_me=1 / trellis=1 / 8x8dct=0 / cqm=0 / deadzone=21,11 / fast_pskip=1 / chroma_qp_offset=-2 / threads=1 / sliced_threads=0 / nr=0 / decimate=1 / interlaced=0 / constrained_intra=0 / bframes=0 / weightp=0 / keyint=250 / keyint_min=25 / scenecut=40 / intra_refresh=0 / rc_lookahead=40 / rc=abr / mbtree=1 / bitrate=610 / ratetol=1.0 / qcomp=0.60 / qpmin=10 / qpmax=51 / qpstep=4 / ip_ratio=1.41 / aq=1:1.00
Audio
ID : 2
Format : AAC
Format/Info : Advanced Audio Codec
Format profile : LC
Codec ID : 40
Duration : 1h 20mn
Bit rate mode : Variable
Bit rate : 80.0 Kbps
Channel(s) : 2 channels
Channel positions : Front: L R
Sampling rate : 44.1 KHz
Compression mode : Lossy
Stream size : 45.9 MiB (11%)
-

Lavhalar



Profil ShX
Xabarlarni ko‘rsatish:    

Hozirgi vaqt: 21-Sen 11:13

Vaqtlar farqi: UTC + 5



Siz mavzu yaratishingiz mumkin emas
Siz xabarlarga javob qaytarishingiz mumkin emas
Siz o‘z xabarlaringizni tahrirlashingiz mumkin emas
Siz o‘z xabarlaringizni o‘chirishingiz mumkin emas
Siz so‘rovlarda ovoz berishingiz mumkin emas
Siz xabalarga fayllarni biriktirishingiz mumkin emas
Siz fayllarni ko‘chirishingiz mumkin emas