˂
˃
Tarqatmalar statistikasi
Yoʻq
 
     
 
 

Gr@nd ®

Jins:
Yigit
Staj:
1 yil 1 oy
Xabarlar:
158

Qayerdan: Jizzax Forish

Taqiq:

-Dyunker | Дюнкерк | Dunkirk- Davlat: Niderlandiya, Buyuk Britaniya, Fransiya, AQSH
Janr: Urush, jangari, drama, istoriya
Chiqqan yili: 2017
Davomiyligi: 01:46:38-Tarjima: Professional (dublyaj qilingan) O'zbek tilida-Rejissiyor: Kristofеr Nolan-Rollarda: Tom Xardi, Killian Myorfi, Kеnnеt Brana, Mark Raylens, Garri Stayls, Anеyrin Barnard, Djеyms D Arsi, Barri Kеogan, Bobbi Lokvud, Djеk Laudеn-Tavsif: Ikkinchi Jahon Urushi boshida sodir bo'lgan Dunkirk operatsiyasi davomida filmda uch yuz mingdan oshiq askarni mo'jizaviy qutqarish haqidagi hikoya aytiladi. Tadbirlar dushman kuchlari tomonidan yuz minglab Britaniya va Ittifoq kuchlarining qurshovidan boshlanadi. Plyajda qoqilib, dengizga qaytib, ular bilan to'qnashuvsiz yuzma-yuz turibdi, shu bilan birga, dushmanni ushlab turish ko'payib ketadi.-Videoning sifati: BDRip
Format: MKV-Video: MPEG4 Video (H264) 1280x720 23.976fps 5 547 Kbps
Audio: Dolby AC3 48000Hz / 6ch / 448 kbps Rus
Audio: MP3 48000Hz / 2ch / 128kbps Uzb
-

MediaInfo

General
Unique ID : 250363146677105444269748558864734772274 (0xBC5A302858CF98BEB43713365C905C32)
Format : Matroska
Format version : Version 4 / Version 2
File size : 4.13 GiB
Duration : 1h 46mn
Overall bit rate : 5 547 Kbps
Movie name : Xusan_Gr@nd
Encoded date : UTC 2017-12-22 17:36:52
Writing application : mkvmerge v6.8.0 ('Theme for Great Cities') 64bit built on Mar 2 2014 21:34:26
Writing library : libebml v1.3.0 + libmatroska v1.4.1
Video
ID : 1
Format : AVC
Format/Info : Advanced Video Codec
Format profile : High@L4.1
Format settings, CABAC : Yes
Format settings, ReFrames : 9 frames
Codec ID : V_MPEG4/ISO/AVC
Duration : 1h 46mn
Bit rate : 4 973 Kbps
Width : 1 280 pixels
Height : 720 pixels
Display aspect ratio : 16:9
Frame rate : 23.976 fps
Color space : YUV
Chroma subsampling : 4:2:0
Bit depth : 8 bits
Scan type : Progressive
Bits/(Pixel*Frame) : 0.225
Stream size : 3.62 GiB (88%)
Title : potroks
Writing library : x264 core 152 r2851M ba24899
Encoding settings : cabac=1 / ref=9 / deblock=1:-1:-1 / analyse=0x3:0x132 / me=umh / subme=11 / psy=1 / psy_rd=1.00:0.05 / mixed_ref=1 / me_range=48 / chroma_me=1 / trellis=2 / 8x8dct=1 / cqm=0 / deadzone=21,11 / fast_pskip=0 / chroma_qp_offset=-3 / threads=9 / lookahead_threads=2 / sliced_threads=0 / nr=0 / decimate=0 / interlaced=0 / bluray_compat=0 / constrained_intra=0 / bframes=12 / b_pyramid=2 / b_adapt=2 / b_bias=0 / direct=3 / weightb=1 / open_gop=0 / weightp=2 / keyint=240 / keyint_min=23 / scenecut=40 / intra_refresh=0 / rc_lookahead=0 / rc=2pass / mbtree=0 / bitrate=4973 / ratetol=1.0 / qcomp=0.70 / qpmin=0 / qpmax=69 / qpstep=4 / cplxblur=20.0 / qblur=0.5 / vbv_maxrate=50000 / vbv_bufsize=35714 / nal_hrd=none / filler=0 / ip_ratio=1.40 / pb_ratio=1.30 / aq=2:0.70
Language : English
Default : Yes
Forced : No
Audio #1
ID : 2
Format : AC-3
Format/Info : Audio Coding 3
Mode extension : CM (complete main)
Format settings, Endianness : Big
Codec ID : A_AC3
Duration : 1h 46mn
Bit rate mode : Constant
Bit rate : 448 Kbps
Channel(s) : 6 channels
Channel positions : Front: L C R, Side: L R, LFE
Sampling rate : 48.0 KHz
Bit depth : 16 bits
Compression mode : Lossy
Stream size : 342 MiB (8%)
Title : Dub | DD 5.1 @ 448 kbps - Blu-ray CEE
Language : Russian
Default : Yes
Forced : No
Audio #2
ID : 3
Format : MPEG Audio
Format version : Version 1
Format profile : Layer 3
Mode : Joint stereo
Mode extension : MS Stereo
Codec ID : A_MPEG/L3
Codec ID/Hint : MP3
Duration : 1h 46mn
Bit rate mode : Constant
Bit rate : 128 Kbps
Channel(s) : 2 channels
Sampling rate : 44.1 KHz
Compression mode : Lossy
Stream size : 97.6 MiB (2%)
Title : Xusan_Gr@nd
Writing library : LAME3.98.2
Language : Uzbek
Default : No
Forced : No
--


So‘ngi marta tahrirlandi: Gr@nd (2017-12-24 11:56), Jami tahrirlangan 1 marta
Profil ShX

BestBoy

Jins:
Yigit
Staj:
1 yil 1 oy
Xabarlar:
63
Taqiq:

5+ bo'lganda bosardim film uchun

Mavzu yaratish 23-Dek-2017 00:02 (37 daqiqa o‘tgach)

Iqitibos

Profil ShX

Striker

Jins:
Yigit
Staj:
1 yil 3 oy
Xabarlar:
37
Taqiq:

Gr@nd, 213.230.78.33 ni qo'shvoring

Mavzu yaratish 23-Dek-2017 00:08 (5 daqiqa o‘tgach)

Iqitibos

Profil ShX

#Epic

Jins:
Yigit
Staj:
1 yil 2 oy
Xabarlar:
50

Qayerdan: Jizzax

Taqiq:

1100Gr@nd, 213.230.78.33 ni qo'shvoring
"белый айпи" ya'ni oq ip qo'shganidan foyda yo'q, uzonlaynda port yopiq

Mavzu yaratish 23-Dek-2017 08:31 (8 soat o‘tgach)

Iqitibos

Profil ShX

MRLG

Jins:
Yigit
Staj:
1 yil 3 oy
Xabarlar:
523
Taqiq:

Gr@nd, Reliz uchun katta rahmat. Lekin relizni bezatishdagi ozgina xatolarni aytib o'taman, shu xatoliklarga keyingi safar ozroq e'tibor qaratasiz deb o'ylayman.
1. Reliz shapkasida Davlatlar nomi ortiqcha, Rejissiyor esa alohida qavs ichiga olib yozing. Namunasi:
Dyunkerk (Kristofer Nolan) [2017, Urush, jangari, drama, tarix, BDRip] O'zbek tilida
2. Xatoliklar:
Davlat: Nidеrlando`, Vеlikobritaniya, Frantsiya, AQSH
Niderlandiya, Buyuk Britaniya, Fransiya deb yozsangiz to'g'ri bo'ladi.
3. Barcha relizlaringizda bir hil xatolik
Sizda: Описание, Формат видео
Yozilishi kerak: Tavsif, Format
Bu xatoliklar bu relizingizda ham qaytarilgan:
http://uztracker.me/viewtopic.php?t=365
Agar shu kichik xatoliklarga ham e'tibor berib ularni to'g'rilasangiz. Hammasi a'lo darajada bo'ladi.

Mavzu yaratish 23-Dek-2017 10:05 (1 soat 33 daqiqa o‘tgach)

Iqitibos

Profil ShX

vuelta

Jins:
Yigit
Staj:
1 yil 3 oy
Xabarlar:
298
Taqiq:

1105Gr@nd, Reliz uchun katta rahmat. Lekin relizni bezatishdagi ozgina xatolarni aytib o'taman, shu xatoliklarga keyingi safar ozroq e'tibor qaratasiz deb o'ylayman.
1. Reliz shapkasida Davlatlar nomi ortiqcha, Rejissiyor esa alohida qavs ichiga olib yozing. Namunasi:
Dyunkerk (Kristofer Nolan) [2017, Urush, jangari, drama, tarix, BDRip] O'zbek tilida
2. Xatoliklar:
Davlat: Nidеrlando`, Vеlikobritaniya, Frantsiya, AQSH
Niderlandiya, Buyuk Britaniya, Fransiya deb yozsangiz to'g'ri bo'ladi.
3. Barcha relizlaringizda bir hil xatolik
Sizda: Описание, Формат видео
Yozilishi kerak: Tavsif, Format
Bu xatoliklar bu relizingizda ham qaytarilgan:
http://uztracker.me/viewtopic.php?t=365
Agar shu kichik xatoliklarga ham e'tibor berib ularni to'g'rilasangiz. Hammasi a'lo darajada bo'ladi.
Uzonlineni Ichki Ip sini bersa uwanda port bor faqat uzonline chilarga amal qiladi 10.5 10.7 10.3 bilan boshlanadi

Mavzu yaratish 23-Dek-2017 19:46 (9 soat o‘tgach)

Iqitibos

Profil ShX

vuelta

Jins:
Yigit
Staj:
1 yil 3 oy
Xabarlar:
298
Taqiq:

MGM GranD Arena deyishadiku ishlarizga omad

Mavzu yaratish 23-Dek-2017 20:55 (1 soat 9 daqiqa o‘tgach)

Iqitibos

Profil ShX

Gr@nd ®

Jins:
Yigit
Staj:
1 yil 1 oy
Xabarlar:
158

Qayerdan: Jizzax Forish

Taqiq:

Azim_Foto, Sex yo'ku vaqtim juda ozroq

Mavzu yaratish 26-Dek-2017 20:37 (2 kun 23 soat o‘tgach)

Iqitibos

Profil ShX
Xabarlarni ko‘rsatish:    

Hozirgi vaqt: 17-Noy 17:53

Vaqtlar farqi: UTC + 5



Siz mavzu yaratishingiz mumkin emas
Siz xabarlarga javob qaytarishingiz mumkin emas
Siz o‘z xabarlaringizni tahrirlashingiz mumkin emas
Siz o‘z xabarlaringizni o‘chirishingiz mumkin emas
Siz so‘rovlarda ovoz berishingiz mumkin emas
Siz xabalarga fayllarni biriktirishingiz mumkin emas
Siz fayllarni ko‘chirishingiz mumkin emas