˂
˃
Tarqatmalar statistikasi
Yoʻq
 
     
 
 

Gr@nd ®

Jins:
Yigit
Staj:
1 yil 1 oy
Xabarlar:
158

Qayerdan: Jizzax Forish

Taqiq:

-Dyunker | Дюнкерк | Dunkirk- Davlat: Niderlandiya, Buyuk Britaniya, Fransiya, AQSH
Janr: Urush, jangari, drama, istoriya
Chiqqan yili: 2017
Davomiyligi: 01:46:38-Tarjima: Professional (dublyaj qilingan) O'zbek tilida-Rejissiyor: Kristofеr Nolan-Rollarda: Tom Xardi, Killian Myorfi, Kеnnеt Brana, Mark Raylens, Garri Stayls, Anеyrin Barnard, Djеyms D Arsi, Barri Kеogan, Bobbi Lokvud, Djеk Laudеn-Tavsif: Ikkinchi Jahon Urushi boshida sodir bo'lgan Dunkirk operatsiyasi davomida filmda uch yuz mingdan oshiq askarni mo'jizaviy qutqarish haqidagi hikoya aytiladi. Tadbirlar dushman kuchlari tomonidan yuz minglab Britaniya va Ittifoq kuchlarining qurshovidan boshlanadi. Plyajda qoqilib, dengizga qaytib, ular bilan to'qnashuvsiz yuzma-yuz turibdi, shu bilan birga, dushmanni ushlab turish ko'payib ketadi.-Videoning sifati: HDRip
Format: MKV-Video: Xvid 720x400 23.976fps 1 347 Kbps
Audio: Dolby AC3 48000Hz / 6ch / 448 kbps Rus
Audio: MP3 48000Hz / 2ch / 128kbps Uzb
-

MediaInfo

General
Unique ID : 225544072971867249075092042202885850033 (0xA9AE3559262DEC93BDB827FB264703B1)
Format : Matroska
Format version : Version 4 / Version 2
File size : 1.46 GiB
Duration : 1h 46mn
Overall bit rate : 1 962 Kbps
Movie name : Xusan_Gr@nd
Encoded date : UTC 2017-12-22 17:30:41
Writing application : mkvmerge v6.8.0 ('Theme for Great Cities') 64bit built on Mar 2 2014 21:34:26
Writing library : libebml v1.3.0 + libmatroska v1.4.1
Video
ID : 1
Format : MPEG-4 Visual
Format profile : Advanced Simple@L5
Format settings, BVOP : Yes
Format settings, QPel : No
Format settings, GMC : No warppoints
Format settings, Matrix : Default (MPEG)
Codec ID : XVID
Codec ID/Hint : XviD
Duration : 1h 46mn
Bit rate : 1 347 Kbps
Width : 720 pixels
Height : 400 pixels
Display aspect ratio : 16:9
Frame rate : 23.976 fps
Color space : YUV
Chroma subsampling : 4:2:0
Bit depth : 8 bits
Scan type : Progressive
Compression mode : Lossy
Bits/(Pixel*Frame) : 0.195
Stream size : 1.00 GiB (69%)
Writing library : XviD 1.2.1 (UTC 2008-12-04)
Default : Yes
Forced : No
Audio #1
ID : 2
Format : AC-3
Format/Info : Audio Coding 3
Mode extension : CM (complete main)
Format settings, Endianness : Big
Codec ID : A_AC3
Duration : 1h 46mn
Bit rate mode : Constant
Bit rate : 448 Kbps
Channel(s) : 6 channels
Channel positions : Front: L C R, Side: L R, LFE
Sampling rate : 48.0 KHz
Bit depth : 16 bits
Compression mode : Lossy
Stream size : 342 MiB (23%)
Default : Yes
Forced : No
Audio #2
ID : 3
Format : MPEG Audio
Format version : Version 1
Format profile : Layer 3
Mode : Joint stereo
Mode extension : MS Stereo
Codec ID : A_MPEG/L3
Codec ID/Hint : MP3
Duration : 1h 46mn
Bit rate mode : Constant
Bit rate : 128 Kbps
Channel(s) : 2 channels
Sampling rate : 44.1 KHz
Compression mode : Lossy
Stream size : 97.6 MiB (7%)
Title : Xusan_Gr@nd
Writing library : LAME3.98.2
Language : Uzbek
Default : No
Forced : No
--


So‘ngi marta tahrirlandi: Gr@nd (2017-12-24 11:57), Jami tahrirlangan 1 marta
Profil ShX

BestBoy

Jins:
Yigit
Staj:
1 yil 1 oy
Xabarlar:
63
Taqiq:

sidga turing o'zim yordamlashaman tarqatishga

Mavzu yaratish 23-Dek-2017 09:00 (3 daqiqa o‘tgach)

Iqitibos

Profil ShX

vuelta

Jins:
Yigit
Staj:
1 yil 2 oy
Xabarlar:
298
Taqiq:

rahmat

Mavzu yaratish 23-Dek-2017 20:53 (11 soat o‘tgach)

Iqitibos

Profil ShX

BoboMUROD

Jins:
Ko‘rsatilmagan
Staj:
1 yil 1 oy
Xabarlar:
13
Taqiq:

Gr@nd, 1. Relizni tarqatish uchun qo`yganmisiz ? 2. Unday bo`lsa tarqating

Mavzu yaratish 08-Yan-2018 03:57 (15 kun o‘tgach)

Iqitibos

Profil ShX
Xabarlarni ko‘rsatish:    

Hozirgi vaqt: 15-Noy 11:06

Vaqtlar farqi: UTC + 5



Siz mavzu yaratishingiz mumkin emas
Siz xabarlarga javob qaytarishingiz mumkin emas
Siz o‘z xabarlaringizni tahrirlashingiz mumkin emas
Siz o‘z xabarlaringizni o‘chirishingiz mumkin emas
Siz so‘rovlarda ovoz berishingiz mumkin emas
Siz xabalarga fayllarni biriktirishingiz mumkin emas
Siz fayllarni ko‘chirishingiz mumkin emas