Tarqatmalar statistikasi
Yoʻq
 
     
 
 

Gr@nd ®

Jins:
Yigit
Staj:
11 oy 25 kun
Xabarlar:
150

Qayerdan: Jizzax Forish

Taqiq:

-Ekipaj | Экипаж- Davlat: Rossiya
Janr: Drama, sarguzasht, trillеr
Chiqqan yili: 2016
Davomiyligi: 02:17:11-Tarjima: Professional (dublyaj qilingan)O'zbek tilida-Rejissiyor: Nikolay Lеbеdеv-Rollarda: Danila Kozlovskiy, Vladimir Mashkov, Agnе Gruditе, Sеrgеy Kеmpo, Katеrina Shpitsa, Sеrgеy Shakurov, Sеrgеy Gazarov, Еlеna Yakovlеva, Alyona Babеnko, Sеrgеy Romanovich-Описание: Iste'dodli yosh pilot Aleksey Gushchinaning hikoyasi. U shaxsiy vakolat kodeksiga ko'ra harakat qilishni afzal ko'rgan hokimiyatni tan olmaydi. Absurd tartibiga rioya qilmaslik uchun u harbiy aviatsiyadan chiqarib yuboriladi va faqatgina mo'jiza orqali fuqarolik samolyotlarida uchish imkoniyatiga ega bo'ladi.-Videoning sifati: BDRip
Формат видео: MKV-Video: MPEG4 Video (H264) 1274x544 24fps 6 000 Kbps
Audio: Dolby AC3 48000Hz 6ch Rus
Audio: MP3 48000Hz 2ch 128kbps Uzb
-

MediaInfo

General
Unique ID : 233728106738708318360077854746334745254 (0xAFD6655DB8482EAAB6B4FEAD36BC52A6)
Format : Matroska
Format version : Version 4 / Version 2
File size : 6.48 GiB
Duration : 2h 17mn
Overall bit rate : 6 759 Kbps
Movie name : Xusan_Gr@nd
Encoded date : UTC 2017-02-06 17:36:12
Writing application : mkvmerge v6.8.0 ('Theme for Great Cities') 64bit built on Mar 2 2014 21:34:26
Writing library : libebml v1.3.0 + libmatroska v1.4.1
Video
ID : 1
Format : AVC
Format/Info : Advanced Video Codec
Format profile : High@L4.1
Format settings, CABAC : Yes
Format settings, ReFrames : 12 frames
Codec ID : V_MPEG4/ISO/AVC
Duration : 2h 17mn
Bit rate : 6 000 Kbps
Width : 1 274 pixels
Height : 544 pixels
Display aspect ratio : 2.35:1
Frame rate : 24.000 fps
Color space : YUV
Chroma subsampling : 4:2:0
Bit depth : 8 bits
Scan type : Progressive
Bits/(Pixel*Frame) : 0.361
Stream size : 5.61 GiB (87%)
Title : by bog3417
Writing library : x264 core 148 r2638 7599210
Encoding settings : cabac=1 / ref=12 / deblock=1:-3:-3 / analyse=0x3:0x133 / me=umh / subme=10 / psy=1 / psy_rd=1.00:0.00 / mixed_ref=1 / me_range=32 / chroma_me=1 / trellis=2 / 8x8dct=1 / cqm=0 / deadzone=21,11 / fast_pskip=0 / chroma_qp_offset=-2 / threads=12 / lookahead_threads=1 / sliced_threads=0 / nr=0 / decimate=0 / interlaced=0 / bluray_compat=0 / constrained_intra=0 / bframes=9 / b_pyramid=2 / b_adapt=1 / b_bias=0 / direct=3 / weightb=1 / open_gop=0 / weightp=2 / keyint=240 / keyint_min=23 / scenecut=40 / intra_refresh=0 / rc=2pass / mbtree=0 / bitrate=6000 / ratetol=1.0 / qcomp=0.60 / qpmin=0 / qpmax=69 / qpstep=4 / cplxblur=20.0 / qblur=0.5 / ip_ratio=1.40 / pb_ratio=1.30 / aq=3:0.80
Language : English
Default : Yes
Forced : No
Audio #1
ID : 2
Format : AC-3
Format/Info : Audio Coding 3
Mode extension : CM (complete main)
Format settings, Endianness : Big
Codec ID : A_AC3
Duration : 2h 17mn
Bit rate mode : Constant
Bit rate : 640 Kbps
Channel(s) : 6 channels
Channel positions : Front: L C R, Side: L R, LFE
Sampling rate : 48.0 KHz
Bit depth : 16 bits
Compression mode : Lossy
Stream size : 628 MiB (9%)
Language : Russian
Default : Yes
Forced : No
Audio #2
ID : 3
Format : MPEG Audio
Format version : Version 1
Format profile : Layer 3
Mode : Joint stereo
Mode extension : MS Stereo
Codec ID : A_MPEG/L3
Codec ID/Hint : MP3
Duration : 2h 17mn
Bit rate mode : Constant
Bit rate : 128 Kbps
Channel(s) : 2 channels
Sampling rate : 44.1 KHz
Compression mode : Lossy
Stream size : 126 MiB (2%)
Title : Xusan_Gr@nd
Writing library : LAME3.98.2
Language : Uzbek
Default : No
Forced : No
Profil ShX
Xabarlarni ko‘rsatish:    

Hozirgi vaqt: 21-Sen 05:17

Vaqtlar farqi: UTC + 5



Siz mavzu yaratishingiz mumkin emas
Siz xabarlarga javob qaytarishingiz mumkin emas
Siz o‘z xabarlaringizni tahrirlashingiz mumkin emas
Siz o‘z xabarlaringizni o‘chirishingiz mumkin emas
Siz so‘rovlarda ovoz berishingiz mumkin emas
Siz xabalarga fayllarni biriktirishingiz mumkin emas
Siz fayllarni ko‘chirishingiz mumkin emas